Filmbol Forum Film İndir FHD - FULL HD v Hız Tutkusu (Need for Speed) - 2014 - TR+ORG - FHD (HEVC x265)
Moderatör Alımları Başladı! Başvuru yapmak için tıklayın.
Filmbol Premium'da %50'e varan indirim fırsatı!
Hız Tutkusu (Need for Speed) - 2014 - TR+ORG - FHD (HEVC x265)
BroserBros
Hız Tutkusu (Need for Speed) - 2014 - TR+ORG - FHD (HEVC x265)
0
144
  • Derecelendirme: 0/5 - 0 oy
  • 1
  • 2
  • 3
  • 4
  • 5
Konuyu Okuyanlar:1 Ziyaretçi
Şuan Offine!
Filmin Yayınlanma Tarihi: 2014 
Şuan Offine!
BroserBros Kurucu Admin
*******
Admin

Vizyon Tarihi


14 Mart 2014

imdb puanı


6,5 / 160,000

süre


132 dakika

Editör Puanı


7,0 / 10

Video Format: Mkv


Matroska (.MKV)

Ses Kodek: AC3


Audio Coding 3 (AC3)

sürüm


x264 | 1080P | BLURAY

Boyutlar


2,36 GB



 Hız Tutkusu



Efsanevi bir konumda yer alan EA Games yapımı Need for Speed oyununun beyazperdeye uyarlanmış hali olan Hız Tutkusu filminde, Marshall Motors isimli bir şirket vardır ve sahibi Tobey Marshall tarafından arkadaşları ile birlikte işletilmektedir. Tobey ve arkadaşları genellikle araba tamiri ve geliştirmesi ardından da para kazanabilecekleri araba yarışlarını takip etmektedirler. Ancak işler pek yolunda değildir ve bir gün Dino adındaki Tobey'in azılı düşmanı onlara reddemeyecekleri bir para teklif eder. Tobey bu parayı kabul etse de, işleri yoluna sokmak yerine iyice kötüleştirecektir...

Hız Tutkusu (2014) (Need for Speed) Filmi Imdb'den 160,000 kişi tarafından oylandı ve 6,5 puan aldı. Bu film için editör puanı 7,0 olarak belirlendi. İyi Seyirler!

Teknik Detaylar

Kod :
General
Unique ID                                : 93411757632624979215800457564781758505 (0x4646733AF321B048509259A069734829)
Complete name                            : /root/Desktop/1/Hız.Tutkusu.2014.FHD.x265.HEVC.10bit.BluRay.TR.ENG.Filmbol.mkv
Format                                   : Matroska
Format version                           : Version 4 / Version 2
File size                                : 6.14 GiB
Duration                                 : 2h 10mn
Overall bit rate                         : 6 713 Kbps
Movie name                               : Hız Tutkusu - Need For Speed (2014) - Filmbol.org
Encoded date                             : UTC 2020-05-07 11:46:55
Writing application                      : mkvmerge v8.8.0 ('Wind at my back') 64bit
Writing library                          : libebml v1.3.3 + libmatroska v1.4.4

Video
ID                                       : 1
Format                                   : HEVC
Format/Info                              : High Efficiency Video Coding
Format profile                           : Main 10@L4@Main
Codec ID                                 : V_MPEGH/ISO/HEVC
Duration                                 : 2h 10mn
Bit rate                                 : 5 271 Kbps
Width                                    : 1 920 pixels
Height                                   : 804 pixels
Display aspect ratio                     : 2.40:1
Frame rate mode                          : Constant
Frame rate                               : 23.976 (24000/1001) fps
Color space                              : YUV
Chroma subsampling                       : 4:2:0
Bit depth                                : 10 bits
Bits/(Pixel*Frame)                       : 0.142
Stream size                              : 4.82 GiB (79%)
Title                                    : FHD
Writing library                          : x265 3.2+15-04db2bfee5d6:[Windows][MSVC 1923][64 bit] 10bit
Encoding settings                        : cpuid=1111039 / frame-threads=3 / numa-pools=12 / wpp / no-pmode / no-pme / no-psnr / no-ssim / log-level=2 / input-csp=1 / input-res=1920x804 / interlace=0 / total-frames=188237 / level-idc=0 / high-tier=1 / uhd-bd=0 / ref=4 / no-allow-non-conformance / no-repeat-headers / annexb / no-aud / no-hrd / info / hash=0 / no-temporal-layers / open-gop / min-keyint=23 / keyint=250 / gop-lookahead=0 / bframes=8 / b-adapt=2 / b-pyramid / bframe-bias=0 / rc-lookahead=80 / lookahead-slices=5 / scenecut=40 / radl=0 / no-splice / no-intra-refresh / ctu=64 / min-cu-size=8 / rect / no-amp / max-tu-size=32 / tu-inter-depth=1 / tu-intra-depth=1 / limit-tu=0 / rdoq-level=2 / dynamic-rd=0.00 / no-ssim-rd / signhide / no-tskip / nr-intra=0 / nr-inter=0 / no-constrained-intra / strong-intra-smoothing / max-merge=3 / limit-refs=3 / limit-modes / me=3 / subme=3 / merange=57 / temporal-mvp / no-frame-dup / no-hme / weightp / no-weightb / no-analyze-src-pics / deblock=0:0 / sao / no-sao-non-deblock / rd=4 / selective-sao=4 / no-early-skip / rskip / no-fast-intra / no-tskip-fast / no-cu-lossless / no-b-intra / no-splitrd-skip / rdpenalty=0 / psy-rd=0.30 / psy-rdoq=1.00 / no-rd-refine / no-lossless / cbqpoffs=0 / crqpoffs=0 / rc=crf / crf=18.0 / qcomp=0.60 / qpstep=4 / stats-write=0 / stats-read=0 / ipratio=1.40 / pbratio=1.30 / aq-mode=3 / aq-strength=1.00 / cutree / zone-count=0 / no-strict-cbr / qg-size=32 / no-rc-grain / qpmax=69 / qpmin=0 / no-const-vbv / sar=0 / overscan=0 / videoformat=5 / range=0 / colorprim=2 / transfer=2 / colormatrix=2 / chromaloc=0 / display-window=0 / cll=0,0 / min-luma=0 / max-luma=1023 / log2-max-poc-lsb=8 / vui-timing-info / vui-hrd-info / slices=1 / no-opt-qp-pps / no-opt-ref-list-length-pps / no-multi-pass-opt-rps / scenecut-bias=0.05 / no-opt-cu-delta-qp / no-aq-motion / no-hdr / no-hdr-opt / no-dhdr10-opt / no-idr-recovery-sei / analysis-reuse-level=5 / scale-factor=0 / refine-intra=0 / refine-inter=0 / refine-mv=1 / refine-ctu-distortion=0 / no-limit-sao / ctu-info=0 / no-lowpass-dct / refine-analysis-type=0 / copy-pic=1 / max-ausize-factor=1.0 / no-dynamic-refine / no-single-sei / no-hevc-aq / no-svt / no-field / qp-adaptation-range=1.00 / no-scenecut-aware-qp
Default                                  : Yes
Forced                                   : No

Audio #1
ID                                       : 2
Format                                   : AC-3
Format/Info                              : Audio Coding 3
Mode extension                           : CM (complete main)
Format settings, Endianness              : Big
Codec ID                                 : A_AC3
Duration                                 : 2h 10mn
Bit rate mode                            : Constant
Bit rate                                 : 448 Kbps
Channel(s)                               : 6 channels
Channel positions                        : Front: L C R, Side: L R, LFE
Sampling rate                            : 48.0 KHz
Frame rate                               : 31.250 fps (1536 spf)
Compression mode                         : Lossy
Delay relative to video                  : 7s 0ms
Stream size                              : 419 MiB (7%)
Title                                    : Filmbol.org
Language                                 : Turkish
Default                                  : Yes
Forced                                   : Yes

Audio #2
ID                                       : 3
Format                                   : AAC
Format/Info                              : Advanced Audio Codec
Format profile                           : LC
Codec ID                                 : A_AAC
Duration                                 : 2h 10mn
Bit rate                                 : 992 Kbps
Channel(s)                               : 6 channels
Channel positions                        : Front: L C R, Side: L R, LFE
Sampling rate                            : 48.0 KHz
Frame rate                               : 46.875 fps (1024 spf)
Compression mode                         : Lossy
Delay relative to video                  : 9ms
Stream size                              : 929 MiB (15%)
Title                                    : Filmbol.org
Language                                 : English
Default                                  : No
Forced                                   : No

Film Detayları


 Hız Tutkusu

 Hız Tutkusu

 Hız Tutkusu


Film Fragmanı


Film Detayları

Uptobox ile indir

1Fichier ile indir

1Fichier'den İndiremiyor musun? Tıklayın!


Mega ile indir

Bunun için üzgünüz ancak, bu linke sadece premium üyeler erişebilir.

Filmbol Cloud



Konu ile Alakalı Benzer Konular
Konular Yazar Yorumlar Okunma Son Yorum
Filmin Yayınlanma Tarihi: 2020
Lanetli Çocuk 2 (Brahms: The Boy II) - 2020 - TR+ORG - FHD - x265 BroserBros 0 52 25-07-2020, Saat: 20:08
Son Yorum: BroserBros
Filmin Yayınlanma Tarihi: 2019
Hellboy (Hellboy) - 2019 - TR+ORG - FHD - x265 BroserBros 0 106 03-07-2020, Saat: 12:39
Son Yorum: BroserBros
Filmin Yayınlanma Tarihi: 2020
Ritmi Hisset (Feel the Beat) - 2020 - TR+ORG - FHD - x265-10Bit BroserBros 0 167 26-06-2020, Saat: 20:20
Son Yorum: BroserBros
Filmin Yayınlanma Tarihi: 2019
Zombi Ülkesi: Çift Dokunuş (Zombieland: Double Tap) - 2019 - TR+ORG - FHD - x265-10Bit BroserBros 0 143 25-06-2020, Saat: 20:53
Son Yorum: BroserBros
Filmin Yayınlanma Tarihi: 2010
Toprak Altında (Buried) - 2010 - TR+ORG - FHD - x265-10Bit BroserBros 0 87 25-06-2020, Saat: 16:20
Son Yorum: BroserBros

Hızlı Menü: