Filmbol Forum Film İndir 3D v Hız Tutkusu (Need for Speed) - 2014 - TR+ORG - 3D
Moderatör Alımları Başladı! Başvuru yapmak için tıklayın.
Filmbol Premium'da %50'e varan indirim fırsatı!
Hız Tutkusu (Need for Speed) - 2014 - TR+ORG - 3D
BroserBros
Hız Tutkusu (Need for Speed) - 2014 - TR+ORG - 3D
0
188
  • Derecelendirme: 0/5 - 0 oy
  • 1
  • 2
  • 3
  • 4
  • 5
Konuyu Okuyanlar:1 Ziyaretçi
Şuan Offine!
Filmin Yayınlanma Tarihi: 2014 
Şuan Offine!
BroserBros Kurucu Admin
*******
Admin

Vizyon Tarihi


14 Mart 2014

imdb puanı


6,5 / 160,000

süre


132 dakika

Editör Puanı


7,0 / 10

Video Format: Mkv


Matroska (.MKV)

Ses Kodek: AC3


Audio Coding 3 (AC3)

sürüm


x264 | 3D | BLURAY

Boyutlar


2,36 GB



 Hız Tutkusu



Efsanevi bir konumda yer alan EA Games yapımı Need for Speed oyununun beyazperdeye uyarlanmış hali olan Hız Tutkusu filminde, Marshall Motors isimli bir şirket vardır ve sahibi Tobey Marshall tarafından arkadaşları ile birlikte işletilmektedir. Tobey ve arkadaşları genellikle araba tamiri ve geliştirmesi ardından da para kazanabilecekleri araba yarışlarını takip etmektedirler. Ancak işler pek yolunda değildir ve bir gün Dino adındaki Tobey'in azılı düşmanı onlara reddemeyecekleri bir para teklif eder. Tobey bu parayı kabul etse de, işleri yoluna sokmak yerine iyice kötüleştirecektir...

Hız Tutkusu (2014) (Need for Speed) Filmi Imdb'den 160,000 kişi tarafından oylandı ve 6,5 puan aldı. Bu film için editör puanı 7,0 olarak belirlendi. İyi Seyirler!

Teknik Detaylar

Kod :
General
Unique ID                                : 264297042756975012123784738875383935691 (0xC6D5C2465814563A6526C1DF203EF2CB)
Complete name                            : /root/Desktop/1/Hız.Tutkusu.2014.3D.x264.HSBS.BluRay.TR.ENG.Filmbol.mkv
Format                                  : Matroska
Format version                          : Version 4 / Version 2
File size                                : 2.36 GiB
Duration                                : 2h 10mn
Overall bit rate                        : 2 586 Kbps
Movie name                              : Hız Tutkusu - Need For Speed (2014) - Filmbol.org
Encoded date                            : UTC 2020-05-07 11:36:25
Writing application                      : mkvmerge v8.8.0 ('Wind at my back') 64bit
Writing library                          : libebml v1.3.3 + libmatroska v1.4.4

Video
ID                                      : 1
Format                                  : AVC
Format/Info                              : Advanced Video Codec
Format profile                          : High@L4.1
Format settings, CABAC                  : Yes
Format settings, ReFrames                : 4 frames
Codec ID                                : V_MPEG4/ISO/AVC
Duration                                : 2h 10mn
Bit rate                                : 2 043 Kbps
Width                                    : 1 920 pixels
Height                                  : 1 080 pixels
Display aspect ratio                    : 16:9
Frame rate mode                          : Constant
Frame rate                              : 23.976 (24000/1001) fps
Original frame rate                      : 23.976 (23976/1000) fps
Color space                              : YUV
Chroma subsampling                      : 4:2:0
Bit depth                                : 8 bits
Scan type                                : Progressive
Bits/(Pixel*Frame)                      : 0.041
Stream size                              : 1.87 GiB (79%)
Title                                    : 3D
Writing library                          : x264 core 142 r2409 d6b4e63
Encoding settings                        : cabac=1 / ref=4 / deblock=1:-1:-1 / analyse=0x3:0x133 / me=umh / subme=9 / psy=1 / psy_rd=1.00:0.15 / mixed_ref=1 / me_range=24 / chroma_me=1 / trellis=2 / 8x8dct=1 / cqm=0 / deadzone=21,11 / fast_pskip=0 / chroma_qp_offset=-3 / threads=60 / lookahead_threads=5 / sliced_threads=0 / nr=0 / decimate=1 / interlaced=0 / bluray_compat=0 / constrained_intra=0 / bframes=3 / b_pyramid=2 / b_adapt=2 / b_bias=0 / direct=3 / weightb=1 / open_gop=0 / weightp=2 / keyint=250 / keyint_min=23 / scenecut=40 / intra_refresh=0 / rc_lookahead=60 / rc=2pass / mbtree=1 / bitrate=2043 / ratetol=1.0 / qcomp=0.60 / qpmin=0 / qpmax=69 / qpstep=4 / cplxblur=20.0 / qblur=0.5 / vbv_maxrate=31250 / vbv_bufsize=31250 / nal_hrd=none / filler=0 / ip_ratio=1.40 / aq=1:1.00
Default                                  : Yes
Forced                                  : No
Color range                              : Limited
Color primaries                          : BT.709
Matrix coefficients                      : BT.709

Audio #1
ID                                      : 2
Format                                  : AC-3
Format/Info                              : Audio Coding 3
Mode extension                          : CM (complete main)
Format settings, Endianness              : Big
Codec ID                                : A_AC3
Duration                                : 2h 10mn
Bit rate mode                            : Constant
Bit rate                                : 448 Kbps
Channel(s)                              : 6 channels
Channel positions                        : Front: L C R, Side: L R, LFE
Sampling rate                            : 48.0 KHz
Frame rate                              : 31.250 fps (1536 spf)
Compression mode                        : Lossy
Stream size                              : 419 MiB (17%)
Title                                    : Filmbol.org
Language                                : Turkish
Default                                  : Yes
Forced                                  : Yes

Audio #2
ID                                      : 3
Format                                  : AAC
Format/Info                              : Advanced Audio Codec
Format profile                          : LC
Codec ID                                : A_AAC
Duration                                : 2h 10mn
Bit rate                                : 93.8 Kbps
Channel(s)                              : 2 channels
Channel positions                        : Front: L R
Sampling rate                            : 48.0 KHz
Frame rate                              : 46.875 fps (1024 spf)
Compression mode                        : Lossy
Stream size                              : 87.7 MiB (4%)
Title                                    : Filmbol.org
Language                                : English
Default                                  : No
Forced                                  : No

Film Detayları


 Hız Tutkusu

 Hız Tutkusu

 Hız Tutkusu


Film Fragmanı


Film Detayları

Uptobox ile indir

1Fichier ile indir

1Fichier'den İndiremiyor musun? Tıklayın!


Mega ile indir

Bunun için üzgünüz ancak, bu linke sadece premium üyeler erişebilir.

Filmbol Cloud



Konu ile Alakalı Benzer Konular
Konular Yazar Yorumlar Okunma Son Yorum
Filmin Yayınlanma Tarihi: 2014
Lego Filmi (The Lego Movie) - 2014 - TR+ORG - 3D BroserBros 0 179 06-06-2020, Saat: 10:53
Son Yorum: BroserBros
Filmin Yayınlanma Tarihi: 2014
Nuh: Büyük Tufan (Noah) - 2014 - TR+ORG - 3D BroserBros 0 165 06-06-2020, Saat: 10:09
Son Yorum: BroserBros
Filmin Yayınlanma Tarihi: 2014
Yarının Sınırında (Edge of Tomorrow) - 2014 - TR+ORG - 3D BroserBros 0 172 05-06-2020, Saat: 20:41
Son Yorum: BroserBros
Filmin Yayınlanma Tarihi: 2014
300: Bir İmparatorluğun Yükselişi (300: Rise of an Empire - 300 Spartalı 2) - 2014 - TR+ORG - 3D BroserBros 0 174 04-06-2020, Saat: 13:40
Son Yorum: BroserBros
Filmin Yayınlanma Tarihi: 2014
Transformers: Kayıp Çağ (Transformers: Age of Extinction) - 2014 - TR+ORG - 3D BroserBros 0 178 02-06-2020, Saat: 23:16
Son Yorum: BroserBros

Hızlı Menü: