Filmbol Forum Film İndir BRRip XviD v Hız Tutkusu (Need for Speed) - 2014 - TR - BRRip XviD
Moderatör Alımları Başladı! Başvuru yapmak için tıklayın.
Filmbol Premium'da %50'e varan indirim fırsatı!
Hız Tutkusu (Need for Speed) - 2014 - TR - BRRip XviD
BroserBros
Hız Tutkusu (Need for Speed) - 2014 - TR - BRRip XviD
3
190
  • Derecelendirme: 0/5 - 0 oy
  • 1
  • 2
  • 3
  • 4
  • 5
Konuyu Okuyanlar:1 Ziyaretçi
Şuan Offine!
Filmin Yayınlanma Tarihi: 2014 
Şuan Offine!
BroserBros Kurucu Admin
*******
Admin

Vizyon Tarihi


14 Mart 2014

imdb puanı


6,5 / 160,000

süre


132 dakika

Editör Puanı


7,0 / 10

Video Format: Avi


Audio Video Interleave (.AVI)

Ses Kodek: MP3


MPEG-1 Audio Layer III (MP3)

sürüm


h263 | BRRip XviD

Boyutlar


1,36 GB



 Hız Tutkusu



Efsanevi bir konumda yer alan EA Games yapımı Need for Speed oyununun beyazperdeye uyarlanmış hali olan Hız Tutkusu filminde, Marshall Motors isimli bir şirket vardır ve sahibi Tobey Marshall tarafından arkadaşları ile birlikte işletilmektedir. Tobey ve arkadaşları genellikle araba tamiri ve geliştirmesi ardından da para kazanabilecekleri araba yarışlarını takip etmektedirler. Ancak işler pek yolunda değildir ve bir gün Dino adındaki Tobey'in azılı düşmanı onlara reddemeyecekleri bir para teklif eder. Tobey bu parayı kabul etse de, işleri yoluna sokmak yerine iyice kötüleştirecektir...

Hız Tutkusu (2014) (Need for Speed) Filmi Imdb'den 160,000 kişi tarafından oylandı ve 6,5 puan aldı. Bu film için editör puanı 7,0 olarak belirlendi. İyi Seyirler!

Teknik Detaylar

Kod :
General
Complete name                            : /root/Desktop/1/Hız.Tutkusu.BRRip.XviD.TR.Filmbol.avi
Format                                  : AVI
Format/Info                              : Audio Video Interleave
File size                                : 1.36 GiB
Duration                                : 2h 10mn
Overall bit rate                        : 1 493 Kbps

Video
ID                                      : 0
Format                                  : MPEG-4 Visual
Format profile                          : Advanced Simple@L5
Format settings, BVOP                    : 2
Format settings, QPel                    : No
Format settings, GMC                    : No warppoints
Format settings, Matrix                  : Default (H.263)
Codec ID                                : XVID
Codec ID/Hint                            : XviD
Duration                                : 2h 10mn
Bit rate                                : 1 359 Kbps
Width                                    : 656 pixels
Height                                  : 272 pixels
Display aspect ratio                    : 2.40:1
Frame rate                              : 23.976 (24000/1001) fps
Color space                              : YUV
Chroma subsampling                      : 4:2:0
Bit depth                                : 8 bits
Scan type                                : Progressive
Compression mode                        : Lossy
Bits/(Pixel*Frame)                      : 0.318
Stream size                              : 1.24 GiB (91%)
Writing library                          : XviD 1.2.1 (UTC 2008-12-04)

Audio
ID                                      : 1
Format                                  : MPEG Audio
Format version                          : Version 1
Format profile                          : Layer 3
Mode                                    : Joint stereo
Codec ID                                : 55
Codec ID/Hint                            : MP3
Duration                                : 2h 10mn
Bit rate mode                            : Constant
Bit rate                                : 128 Kbps
Channel(s)                              : 2 channels
Sampling rate                            : 48.0 KHz
Compression mode                        : Lossy
Stream size                              : 120 MiB (9%)
Alignment                                : Aligned on interleaves
Interleave, duration                    : 167 ms (4.00 video frames)
Interleave, preload duration            : 216 ms
Title                                    : ned

Film Detayları


 Hız Tutkusu

 Hız Tutkusu

 Hız Tutkusu


Film Fragmanı


Film Detayları


Uptobox ile indir

1Fichier ile indir

1Fichier'den İndiremiyor musun? Tıklayın!


Mega ile indir

Bunun için üzgünüz ancak, bu linke sadece premium üyeler erişebilir.

Filmbol Cloud

Şuan Offine!
Şuan Offine!
sectechno Süper Üye
***
Super Üye

  • Konular9
  • Mesajlar67
  • Rep puanı 0
Teşekkürler BroserBros.Eline,emeğine sağlık,kolay gelsin.İyi çalışmalar.
Şuan Offine!
Şuan Offine!
Megalodon Uzman Üye
**
Uzman Üye

  • Konular0
  • Mesajlar14
  • Rep puanı 0
çıkarma hatası veriyor
Şuan Offine!
Şuan Offine!
BroserBros Kurucu Admin
*******
Admin

(05-06-2020, Saat: 04:52)Megalodon Adlı Kullanıcıdan Alıntı: çıkarma hatası veriyor
Herhangi bir problem yok, denemeyi yaptım. Dosya hatalı veya hasarlı inmiş olabilir. Tekrar indirmeyi deneyin ve mobil üzerinden arşivden çıkarmaya çalışıyorsanız PC üzerinden deneyin.


Konu ile Alakalı Benzer Konular
Konular Yazar Yorumlar Okunma Son Yorum
Filmin Yayınlanma Tarihi: 2014
Lucy (2014) Türkçe Dublaj BRRip XviD İndir BroserBros 1 260 19-09-2020, Saat: 00:56
Son Yorum: sectechno
Filmin Yayınlanma Tarihi: 2020
The Hunt (Av) - 2020 - TR - BRRip XviD BroserBros 0 262 18-09-2020, Saat: 19:28
Son Yorum: BroserBros
Filmin Yayınlanma Tarihi: 2018
Gözbebeğim (Pupille) - 2018 - TR - BRRip XviD BroserBros 0 262 18-09-2020, Saat: 13:02
Son Yorum: BroserBros
Filmin Yayınlanma Tarihi: 2019
Umut Vadisi (Hope Gap) - 2019 - TR - BRRip XviD BroserBros 0 261 18-09-2020, Saat: 12:50
Son Yorum: BroserBros
Filmin Yayınlanma Tarihi: 2019
Cep Herkülü: Naim Süleymanoğlu (Cep Herkülü: Naim Süleymanoğlu) - 2019 - TR - BRRip XviD BroserBros 0 114 15-09-2020, Saat: 21:51
Son Yorum: BroserBros

Hızlı Menü: