Filmbol Forum Film İndir BRRip XviD v Hız Tutkunları (Torque) - 2004 - TR - BRRip XviD
Moderatör Alımları Başladı! Başvuru yapmak için tıklayın.
Filmbol Premium'da %50'e varan indirim fırsatı!
Hız Tutkunları (Torque) - 2004 - TR - BRRip XviD
BroserBros
Hız Tutkunları (Torque) - 2004 - TR - BRRip XviD
1
202
  • Derecelendirme: 0/5 - 0 oy
  • 1
  • 2
  • 3
  • 4
  • 5
Konuyu Okuyanlar:2 Ziyaretçi
Şuan Offine!
Filmin Yayınlanma Tarihi: 2004 
Şuan Offine!
BroserBros Kurucu Admin
*******
Admin

Vizyon Tarihi


16 Ocak 2004

imdb puanı


4,1 / 27,000

süre


84 dakika

Editör Puanı


5,5 / 10

Video Format: Avi


Audio Video Interleave (.AVI)

Ses Kodek: MP3


MPEG-1 Audio Layer III (MP3)

sürüm


h263 | DVDRip XviD

Boyutlar


0,70 GB



 Hız Tutkunları



Çarpraz ateşte kalan Cary Ford hem polis tarafından hemde büyük bir çete tarafından takip edilmekte, suçu ise bu büyük çetenin liderinin kardeşini öldürmek olarak geçiyor. Şimdi Cary'nin hiç yapmadığı kadar hızlı olması gerekiyor...

Hız Tutkunları (2004) (Torque) Filmi Imdb'den 27,000 kişi tarafından oylandı ve 4,1 puan aldı. Bu film için editör puanı 5,5 olarak belirlendi. İyi Seyirler!

Teknik Detaylar

Kod :
General
Complete name                            : /root/Desktop/8/Hız.Tutkunları.2004.DVDRip.TR.Filmbol.avi
Format                                  : AVI
Format/Info                              : Audio Video Interleave
File size                                : 704 MiB
Duration                                : 1h 20mn
Overall bit rate                        : 1 222 Kbps
Writing application                      : Lavf52.17.0

Video
ID                                      : 0
Format                                  : MPEG-4 Visual
Format profile                          : Simple@L3
Format settings, BVOP                    : No
Format settings, QPel                    : No
Format settings, GMC                    : No warppoints
Format settings, Matrix                  : Default (H.263)
Codec ID                                : XVID
Codec ID/Hint                            : XviD
Duration                                : 1h 20mn
Bit rate                                : 1 081 Kbps
Width                                    : 720 pixels
Height                                  : 300 pixels
Display aspect ratio                    : 2.40:1
Frame rate                              : 23.976 (24000/1001) fps
Color space                              : YUV
Chroma subsampling                      : 4:2:0
Bit depth                                : 8 bits
Scan type                                : Progressive
Compression mode                        : Lossy
Bits/(Pixel*Frame)                      : 0.209
Stream size                              : 623 MiB (88%)
Writing library                          : XviD 1.1.2 (UTC 2006-11-01)

Audio
ID                                      : 1
Format                                  : MPEG Audio
Format version                          : Version 1
Format profile                          : Layer 3
Mode                                    : Joint stereo
Mode extension                          : MS Stereo
Codec ID                                : 55
Codec ID/Hint                            : MP3
Duration                                : 1h 20mn
Bit rate mode                            : Constant
Bit rate                                : 128 Kbps
Channel(s)                              : 2 channels
Sampling rate                            : 48.0 KHz
Compression mode                        : Lossy
Stream size                              : 73.8 MiB (10%)
Alignment                                : Aligned on interleaves
Interleave, duration                    : 24 ms (0.58 video frame)
Writing library                          : LAME3.97

Film Detayları


 Hız Tutkunları

 Hız Tutkunları

 Hız Tutkunları


Film Fragmanı


Film Detayları


Uptobox ile indir

1Fichier ile indir

1Fichier'den İndiremiyor musun? Tıklayın!


Mega ile indir

Bunun için üzgünüz ancak, bu linke sadece premium üyeler erişebilir.

Filmbol Cloud

Şuan Offine!
Şuan Offine!
sectechno Süper Üye
***
Super Üye

  • Konular9
  • Mesajlar70
  • Rep puanı 0
Gerçekten sokağa çıkma yasağı olduğu günlerde izlenecek filmlerden biri,macera,aksiyon ve adrenalin tutkunları için 2004 yapımı güzel bir film.Teşekkürler BroserBros.Eline,emeğine sağlık,kolay gelsin.İyi çalışmalar.???


Konu ile Alakalı Benzer Konular
Konular Yazar Yorumlar Okunma Son Yorum
Filmin Yayınlanma Tarihi: 2014
Yarının Sınırında (Edge of Tomorrow) - 2014 - TR - BRRip XviD BroserBros 1 138 20-10-2020, Saat: 15:13
Son Yorum: sectechno
Filmin Yayınlanma Tarihi: 2020
Holly Slept Over (Holly Slept Over) - 2020 - TR - BRRip XviD BroserBros 0 393 08-10-2020, Saat: 20:08
Son Yorum: BroserBros
Filmin Yayınlanma Tarihi: 2019
Rahat Kız (An Easy Girl) - 2019 - TR - BRRip XviD BroserBros 0 406 08-10-2020, Saat: 19:34
Son Yorum: BroserBros
Filmin Yayınlanma Tarihi: 2020
Mavi Korku 3 (Deep Blue Sea 3) - 2020 - TR - BRRip XviD BroserBros 0 496 03-10-2020, Saat: 21:11
Son Yorum: BroserBros
Filmin Yayınlanma Tarihi: 2018
Fast Color: Gücünü Serbest Bırak (Fast Color) - 2018 - TR - BRRip XviD BroserBros 0 132 03-10-2020, Saat: 16:46
Son Yorum: BroserBros

Hızlı Menü: