Filmbol Forum Film İndir 1080P v Hitler'i ve Sonra Koca Ayak'ı Öldüren Adam - 2018 - TR - 1080P
Moderatör Alımları Başladı! Başvuru yapmak için tıklayın.
Filmbol Premium'da %50'e varan indirim fırsatı!
Hitler'i ve Sonra Koca Ayak'ı Öldüren Adam - 2018 - TR - 1080P
BroserBros
Hitler'i ve Sonra Koca Ayak'ı Öldüren Adam - 2018 - TR - 1080P
0
132
  • Derecelendirme: 0/5 - 0 oy
  • 1
  • 2
  • 3
  • 4
  • 5
Konuyu Okuyanlar:1 Ziyaretçi
Şuan Online!
Filmin Yayınlanma Tarihi: 2018 
Şuan Online!
BroserBros Kurucu Admin
*******
Admin

Vizyon Tarihi


08 Şubat 2019

imdb puanı


5,6 / 10,000

süre


98 dakika

Editör Puanı


6,0 / 10

Video Format: Mkv


Matroska (.MKV)

Ses Kodek: AC3


Audio Coding 3 (AC3)

sürüm


x264 | 1080P | BLURAY

Boyutlar


1,60 GB



 Hitler'i ve Sonra Koca Ayak'ı Öldüren Adam



Mükemmel bir suikastçi olan Calvin Barr, Adolf Hitleri öldürmesi için bile tutulmuştur. Şimdi sırada yine çok önemli bir görev vardır, bir veba taşıyıcısı vardır ve bu adam insanlığı yok edebilecek bir veba taşımaktadır. Calvin Barr'ın bu seferki görevi bu adamı öldürmektir... 

Hitler'i ve Sonra Koca Ayak'ı Öldüren Adam (2018) (--) Filmi Imdb'den 10,000 kişi tarafından oylandı ve 5,6 puan aldı. Bu film için editör puanı 6,0 olarak belirlendi. İyi Seyirler!

Teknik Detaylar

Kod :
General
Unique ID                                : 139342023803190778630853795560206055362 (0x68D44C3085FDE9481923B87F4D3B37C2)
Complete name                            : /root/Desktop/1/Hitleri.Ve.Sonra.Koca.Ayakı.Öldüren.Adam.2018.1080p.BLURAY.x264.TR.Filmbol.mkv
Format                                  : Matroska
Format version                          : Version 4 / Version 2
File size                                : 1.60 GiB
Duration                                : 1h 38mn
Overall bit rate                        : 2 334 Kbps
Movie name                              : Hitlerden Sonra Koca Ayak'ı Öldüren Adam (2018) - Filmbol.org
Encoded date                            : UTC 2020-04-27 14:19:30
Writing application                      : mkvmerge v8.8.0 ('Wind at my back') 64bit
Writing library                          : libebml v1.3.3 + libmatroska v1.4.4

Video
ID                                      : 1
Format                                  : AVC
Format/Info                              : Advanced Video Codec
Format profile                          : High@L4.1
Format settings, CABAC                  : Yes
Format settings, ReFrames                : 4 frames
Codec ID                                : V_MPEG4/ISO/AVC
Duration                                : 1h 37mn
Bit rate                                : 2 150 Kbps
Width                                    : 1 920 pixels
Height                                  : 800 pixels
Display aspect ratio                    : 2.40:1
Frame rate mode                          : Constant
Frame rate                              : 23.976 (24000/1001) fps
Color space                              : YUV
Chroma subsampling                      : 4:2:0
Bit depth                                : 8 bits
Scan type                                : Progressive
Bits/(Pixel*Frame)                      : 0.058
Stream size                              : 1.47 GiB (92%)
Title                                    : 1080P - Filmbol.org
Writing library                          : x264 core 152
Encoding settings                        : cabac=1 / ref=4 / deblock=1:-1:-1 / analyse=0x3:0x133 / me=umh / subme=9 / psy=1 / psy_rd=1.00:0.15 / mixed_ref=1 / me_range=24 / chroma_me=1 / trellis=2 / 8x8dct=1 / cqm=0 / deadzone=21,11 / fast_pskip=0 / chroma_qp_offset=-3 / threads=12 / lookahead_threads=1 / sliced_threads=0 / nr=0 / decimate=1 / interlaced=0 / bluray_compat=0 / constrained_intra=0 / bframes=3 / b_pyramid=2 / b_adapt=2 / b_bias=0 / direct=3 / weightb=1 / open_gop=0 / weightp=2 / keyint=250 / keyint_min=23 / scenecut=40 / intra_refresh=0 / rc_lookahead=60 / rc=2pass / mbtree=1 / bitrate=2150 / ratetol=1.0 / qcomp=0.60 / qpmin=0 / qpmax=69 / qpstep=4 / cplxblur=20.0 / qblur=0.5 / vbv_maxrate=31250 / vbv_bufsize=31250 / nal_hrd=none / filler=0 / ip_ratio=1.40 / aq=1:1.00
Default                                  : Yes
Forced                                  : No

Audio
ID                                      : 2
Format                                  : AC-3
Format/Info                              : Audio Coding 3
Mode extension                          : CM (complete main)
Format settings, Endianness              : Big
Codec ID                                : A_AC3
Duration                                : 1h 38mn
Bit rate mode                            : Constant
Bit rate                                : 192 Kbps
Channel(s)                              : 2 channels
Channel positions                        : Front: L R
Sampling rate                            : 48.0 KHz
Frame rate                              : 31.250 fps (1536 spf)
Compression mode                        : Lossy
Stream size                              : 135 MiB (8%)
Title                                    : Türkçe
Language                                : Turkish
Default                                  : Yes
Forced                                  : No

Film Detayları


 Hitler'i ve Sonra Koca Ayak'ı Öldüren Adam

 Hitler'i ve Sonra Koca Ayak'ı Öldüren Adam

 Hitler'i ve Sonra Koca Ayak'ı Öldüren Adam


Film Fragmanı


Film Detayları

Uptobox ile indir

1Fichier ile indir

1Fichier'den İndiremiyor musun? Tıklayın!


Mega ile indir

Bunun için üzgünüz ancak, bu linke sadece premium üyeler erişebilir.

Filmbol Cloud



Konu ile Alakalı Benzer Konular
Konular Yazar Yorumlar Okunma Son Yorum
Filmin Yayınlanma Tarihi: 2018
Venom: Zehirli Öfke (2018) Türkçe Dublaj Bluray m1080P İndir DRMOV 42 3,913 26-09-2020, Saat: 21:58
Son Yorum: egzantirik7
Filmin Yayınlanma Tarihi: 2018
Mogli: Orman Çocuğu (Mowgli) Türkçe Dublaj BLURAY 1080P İndir BroserBros 10 844 19-09-2020, Saat: 13:11
Son Yorum: Rocklion17
Filmin Yayınlanma Tarihi: 2020
The Hunt (Av) - 2020 - TR+ORG - 1080P BroserBros 0 284 18-09-2020, Saat: 19:28
Son Yorum: BroserBros
Filmin Yayınlanma Tarihi: 2018
Gözbebeğim (Pupille) - 2018 - TR+ORG - 1080P BroserBros 0 290 18-09-2020, Saat: 13:02
Son Yorum: BroserBros
Filmin Yayınlanma Tarihi: 2019
Umut Vadisi (Hope Gap) - 2019 - TR+ORG - 1080P BroserBros 0 287 18-09-2020, Saat: 12:52
Son Yorum: BroserBros

Hızlı Menü: