Filmbol Forum Film İndir BRRip XviD v Hindistan Eşkıyaları (Thugs of Hindostan) - 2018 - TR - BRRip XviD
Moderatör Alımları Başladı! Başvuru yapmak için tıklayın.
Filmbol Premium'da %50'e varan indirim fırsatı!
Hindistan Eşkıyaları (Thugs of Hindostan) - 2018 - TR - BRRip XviD
BroserBros
Hindistan Eşkıyaları (Thugs of Hindostan) - 2018 - TR - BRRip XviD
0
152
  • Derecelendirme: 0/5 - 0 oy
  • 1
  • 2
  • 3
  • 4
  • 5
Konuyu Okuyanlar:1 Ziyaretçi
Şuan Offine!
Filmin Yayınlanma Tarihi: 2018 
Şuan Offine!
BroserBros Kurucu Admin
*******
Admin

Vizyon Tarihi


30 Kasım 2018

imdb puanı


4,0 / 17,000

süre


164 dakika

Editör Puanı


4,5 / 10

Video Format: Avi


Audio Video Interleave (.AVI)

Ses Kodek: MP3


MPEG-1 Audio Layer III (MP3)

sürüm


h263 | BDRip XviD

Boyutlar


1,42 GB



 Hindistan Eşkıyaları



Hindistan Eşkıyaları, Hint yarımadasının Hindutan ya da Hindostan olarak bilindiği 1795 yılından kurgusal bir tarih masalını seyircilerine taşıyor.
1795 yılında, Hint yarımadasının hala Hindutan ya da Hindostan olarak bilindiği yıllarda, İngiliz Doğu Hindistan ortaklığı devrededir. Gittikçe genişleyen ve Hindistan'ın büyük bölümüne egemen olan İngiliz Doğu Hindistan ortaklığı engel tanımaz gibi görünmektedir. Ancak bu durumdan rahatsız olanlar vardır. Hindistan'ın ünlü haydut grubu mücadeleye hazırdır. Khudabaksh Azaad isimli bir haydutun liderliğindeki grup, Hindistan'ı İngilizlerden kurtarmak ve özgürlüğünü garantilemek adına zorlu bir mücadeleye atılırlar. Britanyalı bir komutan olan John Clive ise bu haberi aldığında harekete geçmeye karar verir ve sinsi bir planı devreye sokar. Bu plan kapsamında komutan, Awadh'ın küçük çaplı bir haydutu olan Firangi Mallah'ı kullanmaya karar verir. Komutan Clive, Mallah'ı grubun içine sızması ve tehditi engellemesi için haydutların peşine salar. Ancak Firangi, bu süreçte kendini keşfettiği gibi ne yapmak istediğini de fark etmeye başlayacak ve tarafını seçmek zorunda kalacaktır...

Hindistan Eşkıyaları (2018) (Thugs of Hindostan) Filmi Imdb'den 17,000 kişi tarafından oylandı ve 4,0 puan aldı. Bu film için editör puanı 4,5 olarak belirlendi. İyi Seyirler!

Teknik Detaylar

Kod :
General
Complete name                            : /root/Desktop/1/Hindistan.Eşkiyaları.2018.BDRip.XViD.TR.Filmbol.avi
Format                                  : AVI
Format/Info                              : Audio Video Interleave
File size                                : 1.42 GiB
Duration                                : 2h 44mn
Overall bit rate                        : 1 239 Kbps

Video
ID                                      : 0
Format                                  : MPEG-4 Visual
Format profile                          : Advanced Simple@L5
Format settings, BVOP                    : 2
Format settings, QPel                    : No
Format settings, GMC                    : No warppoints
Format settings, Matrix                  : Default (MPEG)
Codec ID                                : XVID
Codec ID/Hint                            : XviD
Duration                                : 2h 44mn
Bit rate                                : 1 098 Kbps
Width                                    : 720 pixels
Height                                  : 300 pixels
Display aspect ratio                    : 2.40:1
Frame rate                              : 24.000 fps
Color space                              : YUV
Chroma subsampling                      : 4:2:0
Bit depth                                : 8 bits
Scan type                                : Progressive
Compression mode                        : Lossy
Bits/(Pixel*Frame)                      : 0.212
Stream size                              : 1.26 GiB (89%)
Writing library                          : XviD 64

Audio
ID                                      : 1
Format                                  : MPEG Audio
Format version                          : Version 1
Format profile                          : Layer 3
Mode                                    : Joint stereo
Mode extension                          : MS Stereo
Codec ID                                : 55
Codec ID/Hint                            : MP3
Duration                                : 2h 44mn
Bit rate mode                            : Constant
Bit rate                                : 128 Kbps
Channel(s)                              : 2 channels
Sampling rate                            : 48.0 KHz
Compression mode                        : Lossy
Stream size                              : 151 MiB (10%)
Alignment                                : Aligned on interleaves
Interleave, duration                    : 24 ms (0.58 video frame)

Film Detayları


 Hindistan Eşkıyaları

 Hindistan Eşkıyaları

 Hindistan Eşkıyaları


Film Fragmanı


Film Detayları


Uptobox ile indir

1Fichier ile indir

1Fichier'den İndiremiyor musun? Tıklayın!


Mega ile indir

Bunun için üzgünüz ancak, bu linke sadece premium üyeler erişebilir.

Filmbol Cloud



Konu ile Alakalı Benzer Konular
Konular Yazar Yorumlar Okunma Son Yorum
Filmin Yayınlanma Tarihi: 2014
Lucy (2014) Türkçe Dublaj BRRip XviD İndir BroserBros 1 260 19-09-2020, Saat: 00:56
Son Yorum: sectechno
Filmin Yayınlanma Tarihi: 2020
The Hunt (Av) - 2020 - TR - BRRip XviD BroserBros 0 263 18-09-2020, Saat: 19:28
Son Yorum: BroserBros
Filmin Yayınlanma Tarihi: 2018
Gözbebeğim (Pupille) - 2018 - TR - BRRip XviD BroserBros 0 263 18-09-2020, Saat: 13:02
Son Yorum: BroserBros
Filmin Yayınlanma Tarihi: 2019
Umut Vadisi (Hope Gap) - 2019 - TR - BRRip XviD BroserBros 0 262 18-09-2020, Saat: 12:50
Son Yorum: BroserBros
Filmin Yayınlanma Tarihi: 2019
Cep Herkülü: Naim Süleymanoğlu (Cep Herkülü: Naim Süleymanoğlu) - 2019 - TR - BRRip XviD BroserBros 0 114 15-09-2020, Saat: 21:51
Son Yorum: BroserBros

Hızlı Menü: