Filmbol Forum Film İndir 1080P v Hindistan Eşkıyaları (Thugs of Hindostan) - 2018 - TR - 1080P
Moderatör Alımları Başladı! Başvuru yapmak için tıklayın.
Filmbol Premium'da %50'e varan indirim fırsatı!
Hindistan Eşkıyaları (Thugs of Hindostan) - 2018 - TR - 1080P
BroserBros
Hindistan Eşkıyaları (Thugs of Hindostan) - 2018 - TR - 1080P
0
128
  • Derecelendirme: 0/5 - 0 oy
  • 1
  • 2
  • 3
  • 4
  • 5
Konuyu Okuyanlar:1 Ziyaretçi
Şuan Online!
Filmin Yayınlanma Tarihi: 2018 
Şuan Online!
BroserBros Kurucu Admin
*******
Admin

Vizyon Tarihi


30 Kasım 2018

imdb puanı


4,0 / 17,000

süre


164 dakika

Editör Puanı


4,5 / 10

Video Format: Mkv


Matroska (.MKV)

Ses Kodek: AC3


Audio Coding 3 (AC3)

sürüm


x264 | 1080P | BLURAY

Boyutlar


2,64 GB



 Hindistan Eşkıyaları



Hindistan Eşkıyaları, Hint yarımadasının Hindutan ya da Hindostan olarak bilindiği 1795 yılından kurgusal bir tarih masalını seyircilerine taşıyor.
1795 yılında, Hint yarımadasının hala Hindutan ya da Hindostan olarak bilindiği yıllarda, İngiliz Doğu Hindistan ortaklığı devrededir. Gittikçe genişleyen ve Hindistan'ın büyük bölümüne egemen olan İngiliz Doğu Hindistan ortaklığı engel tanımaz gibi görünmektedir. Ancak bu durumdan rahatsız olanlar vardır. Hindistan'ın ünlü haydut grubu mücadeleye hazırdır. Khudabaksh Azaad isimli bir haydutun liderliğindeki grup, Hindistan'ı İngilizlerden kurtarmak ve özgürlüğünü garantilemek adına zorlu bir mücadeleye atılırlar. Britanyalı bir komutan olan John Clive ise bu haberi aldığında harekete geçmeye karar verir ve sinsi bir planı devreye sokar. Bu plan kapsamında komutan, Awadh'ın küçük çaplı bir haydutu olan Firangi Mallah'ı kullanmaya karar verir. Komutan Clive, Mallah'ı grubun içine sızması ve tehditi engellemesi için haydutların peşine salar. Ancak Firangi, bu süreçte kendini keşfettiği gibi ne yapmak istediğini de fark etmeye başlayacak ve tarafını seçmek zorunda kalacaktır...

Hindistan Eşkıyaları (2018) (Thugs of Hindostan) Filmi Imdb'den 17,000 kişi tarafından oylandı ve 4,0 puan aldı. Bu film için editör puanı 4,5 olarak belirlendi. İyi Seyirler!

Teknik Detaylar

Kod :
General
Unique ID                                : 119657824805202389492278465703555482024 (0x5A05423FE1BA2E94AFC1D0248DDDC1A8)
Complete name                            : /root/Desktop/1/Hindistan.Eşkiyaları.2018.1080p.BluRay.x264.TR.Filmbol.mkv
Format                                  : Matroska
Format version                          : Version 4 / Version 2
File size                                : 2.64 GiB
Duration                                : 2h 44mn
Overall bit rate                        : 2 295 Kbps
Movie name                              : Hindistan Eşkiyaları (2018) - Filmbol.org
Encoded date                            : UTC 2020-04-24 13:42:36
Writing application                      : mkvmerge v8.8.0 ('Wind at my back') 64bit
Writing library                          : libebml v1.3.3 + libmatroska v1.4.4

Video
ID                                      : 1
Format                                  : AVC
Format/Info                              : Advanced Video Codec
Format profile                          : Main@L4
Format settings, CABAC                  : Yes
Format settings, ReFrames                : 2 frames
Format settings, GOP                    : M=1, N=25
Codec ID                                : V_MPEG4/ISO/AVC
Duration                                : 2h 44mn
Bit rate                                : 2 101 Kbps
Width                                    : 1 920 pixels
Height                                  : 804 pixels
Display aspect ratio                    : 2.40:1
Frame rate mode                          : Constant
Frame rate                              : 24.000 fps
Color space                              : YUV
Chroma subsampling                      : 4:2:0
Bit depth                                : 8 bits
Scan type                                : Progressive
Bits/(Pixel*Frame)                      : 0.057
Stream size                              : 2.42 GiB (92%)
Title                                    : 1080p - Filmbol.org
Language                                : English
Default                                  : Yes
Forced                                  : No

Audio
ID                                      : 2
Format                                  : AC-3
Format/Info                              : Audio Coding 3
Mode extension                          : CM (complete main)
Format settings, Endianness              : Big
Codec ID                                : A_AC3
Duration                                : 2h 44mn
Bit rate mode                            : Constant
Bit rate                                : 192 Kbps
Channel(s)                              : 2 channels
Channel positions                        : Front: L R
Sampling rate                            : 48.0 KHz
Frame rate                              : 31.250 fps (1536 spf)
Compression mode                        : Lossy
Stream size                              : 226 MiB (8%)
Title                                    : Türkçe - Filmbol.org
Language                                : Turkish
Default                                  : Yes
Forced                                  : No

Film Detayları


 Hindistan Eşkıyaları

 Hindistan Eşkıyaları

 Hindistan Eşkıyaları


Film Fragmanı


Film Detayları

Uptobox ile indir

1Fichier ile indir

1Fichier'den İndiremiyor musun? Tıklayın!


Mega ile indir

Bunun için üzgünüz ancak, bu linke sadece premium üyeler erişebilir.

Filmbol Cloud



Konu ile Alakalı Benzer Konular
Konular Yazar Yorumlar Okunma Son Yorum
Filmin Yayınlanma Tarihi: 2018
Seviye 16 (Level 16) - 2018 - TR+ORG - 1080P BroserBros 0 83 04-07-2020, Saat: 21:28
Son Yorum: BroserBros
Filmin Yayınlanma Tarihi: 2018
Küçük Orman (Little Woods) - 2018 - TR+ORG - 1080P BroserBros 0 82 04-07-2020, Saat: 19:59
Son Yorum: BroserBros
Filmin Yayınlanma Tarihi: 2018
Suda Ölüm (Dead in the Water) - 2018 - TR+ORG - 1080P BroserBros 0 85 04-07-2020, Saat: 19:40
Son Yorum: BroserBros
Filmin Yayınlanma Tarihi: 2019
X-Men: Dark Phoenix (2019) Türkçe Dublaj BLURAY 1080P İndir BroserBros 36 2,270 04-07-2020, Saat: 00:45
Son Yorum: oktayfidann
Filmin Yayınlanma Tarihi: 2019
Aşkı Beklerken (Deux moi - Someone, Somewhere) - 2019 - TR+ORG - 1080P BroserBros 0 106 03-07-2020, Saat: 14:18
Son Yorum: BroserBros

Hızlı Menü: