Filmbol Forum Film İndir 1080P v Herkül: Özgürlük Savaşçısı (Hercules) - 2014 - TR+ORG - 1080P
Moderatör Alımları Başladı! Başvuru yapmak için tıklayın.
Filmbol Premium'da %50'e varan indirim fırsatı!
Herkül: Özgürlük Savaşçısı (Hercules) - 2014 - TR+ORG - 1080P
BroserBros
Herkül: Özgürlük Savaşçısı (Hercules) - 2014 - TR+ORG - 1080P
0
54
  • Derecelendirme: 0/5 - 0 oy
  • 1
  • 2
  • 3
  • 4
  • 5
Konuyu Okuyanlar:1 Ziyaretçi
Şuan Online!
Filmin Yayınlanma Tarihi: 2014 
Şuan Online!
BroserBros Kurucu Admin
*******
Admin

Vizyon Tarihi


25 Haziran 2014

imdb puanı


6,0 / 150,000

süre


98 dakika

Editör Puanı


7,1 / 10

Video Format: Mkv


Matroska (.MKV)

Ses Kodek: AC3


Audio Coding 3 (AC3)

sürüm


x264 | 1080P | BluRay

Boyutlar


2,09 GB



 Herkül: Özgürlük Savaşçısı



Eminiz ki herkül karakterini bir yerlerden duymuşsunuzdur. Herkül'ü yeniden ele alan filmde, başrolde Dwayne Johnson ile birlikte gerçek bir herkül gibi duruyor. Yönetmen koltuğunda ise Brett Ratner bulunuyor..

Herkül: Özgürlük Savaşçısı (2014) (Hercules) Filmi Imdb'den 150,000 kişi tarafından oylandı ve 6,0 puan aldı. Bu film için editör puanı 7,1 olarak belirlendi. İyi Seyirler!

Teknik Detaylar

Kod :
General
Unique ID                                : 116212965496846162648049927987160518634 (0x576DCD92906D143889A9CA0AC76D8FEA)
Complete name                            : /root/Desktop/5/Herkül.Özgürlük.Savaşcısı.2014.1080p.BluRay.x264.TR.ENG.Filmbol.mkv
Format                                  : Matroska
Format version                          : Version 4 / Version 2
File size                                : 2.09 GiB
Duration                                : 1h 41mn
Overall bit rate                        : 2 951 Kbps
Movie name                              : Herkül - Hercules - 2014 | Filmbol.org
Encoded date                            : UTC 2020-05-29 16:09:21
Writing application                      : mkvmerge v8.8.0 ('Wind at my back') 64bit
Writing library                          : libebml v1.3.3 + libmatroska v1.4.4

Video
ID                                      : 1
Format                                  : AVC
Format/Info                              : Advanced Video Codec
Format profile                          : High@L4.1
Format settings, CABAC                  : Yes
Format settings, ReFrames                : 4 frames
Codec ID                                : V_MPEG4/ISO/AVC
Duration                                : 1h 41mn
Bit rate                                : 2 215 Kbps
Width                                    : 1 920 pixels
Height                                  : 800 pixels
Display aspect ratio                    : 2.40:1
Frame rate mode                          : Constant
Frame rate                              : 23.976 (24000/1001) fps
Original frame rate                      : 23.976 (23976/1000) fps
Color space                              : YUV
Chroma subsampling                      : 4:2:0
Bit depth                                : 8 bits
Scan type                                : Progressive
Bits/(Pixel*Frame)                      : 0.060
Stream size                              : 1.57 GiB (75%)
Title                                    : 3D - Filmbol.org
Writing library                          : x264 core 142 r2479 dd79a61
Encoding settings                        : cabac=1 / ref=4 / deblock=1:-1:-1 / analyse=0x3:0x133 / me=umh / subme=9 / psy=1 / psy_rd=1.00:0.15 / mixed_ref=1 / me_range=24 / chroma_me=1 / trellis=2 / 8x8dct=1 / cqm=0 / deadzone=21,11 / fast_pskip=0 / chroma_qp_offset=-3 / threads=48 / lookahead_threads=4 / sliced_threads=0 / nr=0 / decimate=1 / interlaced=0 / bluray_compat=0 / constrained_intra=0 / bframes=3 / b_pyramid=2 / b_adapt=2 / b_bias=0 / direct=3 / weightb=1 / open_gop=0 / weightp=2 / keyint=250 / keyint_min=23 / scenecut=40 / intra_refresh=0 / rc_lookahead=60 / rc=2pass / mbtree=1 / bitrate=2215 / ratetol=1.0 / qcomp=0.60 / qpmin=0 / qpmax=69 / qpstep=4 / cplxblur=20.0 / qblur=0.5 / vbv_maxrate=31250 / vbv_bufsize=31250 / nal_hrd=none / filler=0 / ip_ratio=1.40 / aq=1:1.00
Default                                  : Yes
Forced                                  : No
Color range                              : Limited
Color primaries                          : BT.709
Matrix coefficients                      : BT.709

Audio #1
ID                                      : 2
Format                                  : AC-3
Format/Info                              : Audio Coding 3
Mode extension                          : CM (complete main)
Format settings, Endianness              : Big
Codec ID                                : A_AC3
Duration                                : 1h 41mn
Bit rate mode                            : Constant
Bit rate                                : 640 Kbps
Channel(s)                              : 6 channels
Channel positions                        : Front: L C R, Side: L R, LFE
Sampling rate                            : 48.0 KHz
Frame rate                              : 31.250 fps (1536 spf)
Compression mode                        : Lossy
Stream size                              : 465 MiB (22%)
Title                                    : Türkçe - Filmbol.org
Language                                : Turkish
Default                                  : Yes
Forced                                  : Yes

Audio #2
ID                                      : 3
Format                                  : AAC
Format/Info                              : Advanced Audio Codec
Format profile                          : LC
Codec ID                                : A_AAC
Duration                                : 1h 41mn
Bit rate                                : 93.8 Kbps
Channel(s)                              : 2 channels
Channel positions                        : Front: L R
Sampling rate                            : 48.0 KHz
Frame rate                              : 46.875 fps (1024 spf)
Compression mode                        : Lossy
Stream size                              : 68.1 MiB (3%)
Title                                    : İngilizce - Filmbol.org
Language                                : English
Default                                  : No
Forced                                  : No

Film Detayları


 Herkül: Özgürlük Savaşçısı

 Herkül: Özgürlük Savaşçısı

 Herkül: Özgürlük Savaşçısı


Film Fragmanı


Film Detayları

Uptobox ile indir

1Fichier ile indir

1Fichier'den İndiremiyor musun? Tıklayın!


Mega ile indir

Bunun için üzgünüz ancak, bu linke sadece premium üyeler erişebilir.

Filmbol Cloud



Konu ile Alakalı Benzer Konular
Konular Yazar Yorumlar Okunma Son Yorum
Filmin Yayınlanma Tarihi: 2018
Seviye 16 (Level 16) - 2018 - TR+ORG - 1080P BroserBros 0 82 04-07-2020, Saat: 21:28
Son Yorum: BroserBros
Filmin Yayınlanma Tarihi: 2018
Küçük Orman (Little Woods) - 2018 - TR+ORG - 1080P BroserBros 0 82 04-07-2020, Saat: 19:59
Son Yorum: BroserBros
Filmin Yayınlanma Tarihi: 2018
Suda Ölüm (Dead in the Water) - 2018 - TR+ORG - 1080P BroserBros 0 85 04-07-2020, Saat: 19:40
Son Yorum: BroserBros
Filmin Yayınlanma Tarihi: 2019
X-Men: Dark Phoenix (2019) Türkçe Dublaj BLURAY 1080P İndir BroserBros 36 2,270 04-07-2020, Saat: 00:45
Son Yorum: oktayfidann
Filmin Yayınlanma Tarihi: 2019
Aşkı Beklerken (Deux moi - Someone, Somewhere) - 2019 - TR+ORG - 1080P BroserBros 0 105 03-07-2020, Saat: 14:18
Son Yorum: BroserBros

Hızlı Menü: