Hoşgeldin, Ziyaretçi: Giriş Yap Üye Ol


stats
Adblock'u kapattıysanız tıklayın.
Hoşgeldiniz!
Filmbol'u tercih ettiğiniz için teşekkürler, ancak ablock kullanarak devam edemezsiniz.
Merak etmeyin. Heryerden ardı ardına çıkan reklamlar görmeyeceksiniz :)

Sadece site içi 1 reklam göreceksin ve bu site gezintini etkilemeyecek.
Konuyu Oyla:
  • Derecelendirme: 0/5 - 0 oy
  • 1
  • 2
  • 3
  • 4
  • 5
Hayalperest (Walt Before Mickey) Türkçe Dublaj m720P İndir
#1
Filmin Yayınlanma Tarihi: 2015 

indirme türü


Bulut + Premium

vizyon tarihi


14 Ağustos 2015

Boyutlar


1,21GB

diller


[TR]

altyazilar


Yok [Eklenebilir]

Video Format: Mkv


Matroska (.MKV)

Video Detay


MPEG-4, 1214 Kbps, 0,92 GB

imdb puanı


6,0 / 10,0 / 3,000

süre


120 dakika

Ses Kodek: AC3


Audio Coding 3 (AC3)

Ses Detay


384 Kbps, 62 Kanal, 294 Mb

rarsifresi


filmbol.org

Editör Puanı


5,8

Genislik Yukseklik


1280x534

sürüm


x264 | WEBDL - m720P



Film Detayları

"Hüsran duygusu ya insanı boğar, ya da şekillendirir." , " Hayaller, bir sürü başarısızlık ve umut olmadan gerçek olamaz." Her şey bir fare ile başladı... O fareye kadar her yaptığı işte sürekli olarak düşüşte olan bir adamın hayatı izliyorsunuz. Yetenekli, heyecanlı ama sabırsız ve beş parasız...


Teknik Detaylar

Kod:
General
Format                                   : Matroska
Format version                           : Version 4 / Version 2
File size                                : 1.22 GiB
Duration                                 : 1h 46mn
Overall bit rate                         : 1 630 Kbps
Movie name                               : Walt Before Mickey - Filmbol.or

Video
ID                                       : 1
Format                                   : AVC
Format/Info                              : Advanced Video Codec
Format profile                           : Main@L3.1
Format settings, CABAC                   : Yes
Format settings, ReFrames                : 2 frames
Format settings, GOP                     : M=1, N=25
Codec ID                                 : V_MPEG4/ISO/AVC
Duration                                 : 1h 46mn
Bit rate                                 : 1 214 Kbps
Width                                    : 1 280 pixels
Height                                   : 534 pixels
Display aspect ratio                     : 2.40:1
Frame rate mode                          : Constant
Frame rate                               : 23.976 fps
Color space                              : YUV
Chroma subsampling                       : 4:2:0
Bit depth                                : 8 bits
Scan type                                : Progressive
Bits/(Pixel*Frame)                       : 0.074
Stream size                              : 928 MiB (74%)
Title                                    : m720P - Filmbol.org
Language                                 : English
Default                                  : Yes
Forced                                   : No

Audio
ID                                       : 2
Format                                   : AC-3
Format/Info                              : Audio Coding 3
Mode extension                           : CM (complete main)
Format settings, Endianness              : Big
Codec ID                                 : A_AC3
Duration                                 : 1h 46mn
Bit rate mode                            : Constant
Bit rate                                 : 384 Kbps
Channel(s)                               : 6 channels
Channel positions                        : Front: L C R, Side: L R, LFE
Sampling rate                            : 48.0 KHz
Bit depth                                : 16 bits
Compression mode                         : Lossy
Stream size                              : 294 MiB (24%)
Title                                    : Türkçe - Filmbol.org
Language                                 : Turkish
Default                                  : Yes
Forced                                   : No



Film Detayları


Walt Before Mickey

Walt Before Mickey

Walt Before Mickey

Walt Before Mickey

Walt Before Mickey


Film Fragmanı


Film Detayları

Mini 720P İndir


Turbobit İle İndir

Mega ile indir

Uptobox ile indir

Mypcloud ile indir

 
Cevapla
  


Hızlı Menü:


Şu anda bu konuyu okuyanlar: 1 Ziyaretçi