Filmbol Forum Film İndir BRRip XviD v Havari (Apostle) Türkçe Dublaj BRRip XviD İndir
Filmbol'da moderatör olmak ister misiniz? Bizimle iletişime geçmek için tıklayın!
Havari (Apostle) Türkçe Dublaj BRRip XviD İndir
BroserBros
Havari (Apostle) Türkçe Dublaj BRRip XviD İndir
0
192
  • Derecelendirme: 0/5 - 0 oy
  • 1
  • 2
  • 3
  • 4
  • 5
Konuyu Okuyanlar:1 Ziyaretçi
Şuan Online!
Filmin Yayınlanma Tarihi: 2018 
Şuan Online!
BroserBros Kurucu Admin
*******
Admin

Vizyon Tarihi


12 Ekim 2018

imdb puanı


6,3 / 36,000

süre


130 dakika

Editör Puanı


6,5

Video Format: Avi


Audio Video Interleave (.AVI)

Ses Kodek: MP3


MPEG-1 Audio Layer III (MP3)

sürüm


h263 | WEBRip Xvid

Boyutlar


1,69



Havari



Film Detayları

Havari, bir tarikat tarafından kaçırılan kız kardeşini kurtarmaya çalışan bir adamın hikayesini anlatıyor. 1905 yılında Londra’da geçen hikayede Thomas Richardson, kardeşinin bir tarikat tarafından kaçırıldığını öğrendiğinde yıllar önce ayrıldığı evine geri döner. Tarikat üyeleri Thomas’ın kardeşini salmak karşılığında yüklü bir miktarda fidye istemektedir. Her ne pahasına olursa olsun kardeşinin kurtarmaya kararlı olan genç adam, Peygamber Malcolm’ın liderliğinde yaşayan tarikatın bulunduğu sakin adaya gitmeye karar verir. Thomas, ada topluluğunun içine sızdıkça tahmin ettiğinin daha da ötesinde korkunç bir sırrın ortaya çıkmasına neden olur. 

Havari (Apostle) Filmi Imdb'den 36,000 kişi tarafından oylandı ve 6,3 puan aldı. Bu film için editör puanı 6,5 olarak belirlendi. İyi Seyirler!


Teknik Detaylar


Kod :
General
Complete name                            : /root/Desktop/5/Apostle.2018.WEBRip.XviD.TR.Filmbol.avi
Format                                   : AVI
Format/Info                              : Audio Video Interleave
File size                                : 1.69 GiB
Duration                                 : 2h 10mn
Overall bit rate                         : 1 856 Kbps

Video
ID                                       : 0
Format                                   : MPEG-4 Visual
Format profile                           : Simple@L5
Format settings, BVOP                    : No
Format settings, QPel                    : No
Format settings, GMC                     : No warppoints
Format settings, Matrix                  : Default (H.263)
Codec ID                                 : XVID
Codec ID/Hint                            : XviD
Duration                                 : 2h 10mn
Bit rate                                 : 1 715 Kbps
Width                                    : 720 pixels
Height                                   : 304 pixels
Display aspect ratio                     : 2.40:1
Frame rate                               : 24.000 fps
Color space                              : YUV
Chroma subsampling                       : 4:2:0
Bit depth                                : 8 bits
Scan type                                : Progressive
Compression mode                         : Lossy
Bits/(Pixel*Frame)                       : 0.326
Stream size                              : 1.56 GiB (92%)
Writing library                          : Lavc58.1.100

Audio
ID                                       : 1
Format                                   : MPEG Audio
Format version                           : Version 1
Format profile                           : Layer 3
Mode                                     : Joint stereo
Mode extension                           : MS Stereo
Codec ID                                 : 55
Codec ID/Hint                            : MP3
Duration                                 : 2h 10mn
Bit rate mode                            : Constant
Bit rate                                 : 128 Kbps
Channel(s)                               : 2 channels
Sampling rate                            : 48.0 KHz
Compression mode                         : Lossy
Stream size                              : 119 MiB (7%)
Alignment                                : Aligned on interleaves
Interleave, duration                     : 24 ms (0.58 video frame)

Film Detayları


Havari

Havari

Havari


Film Fragmanı


Film Detayları

Brrip İndir



Uptobox ile indir

1Fichier ile indir

1Fichier'den İndiremiyor musun? Tıklayın!


Mega ile indir

MediaFire ile indir



Konu ile Alakalı Benzer Konular
Konular Yazar Yorumlar Okunma Son Yorum
Filmin Yayınlanma Tarihi: 2019
Hain (The Traitor / Il traditore) - 2019 - TR - BRRip XviD BroserBros 0 25 , Saat: 16:04
Son Yorum: BroserBros
Filmin Yayınlanma Tarihi: 2020
All Together Now (All Together Now) - 2020 - TR - BRRip XviD BroserBros 0 20 , Saat: 15:49
Son Yorum: BroserBros
Filmin Yayınlanma Tarihi: 2018
Vita & Virginia (Vita ve Virginia) - 2018 - TR - BRRip XviD BroserBros 0 20 , Saat: 15:31
Son Yorum: BroserBros
Filmin Yayınlanma Tarihi: 2019
Ibiza (Ibiza) - 2019 - TR - BRRip XviD BroserBros 0 22 , Saat: 14:56
Son Yorum: BroserBros
Filmin Yayınlanma Tarihi: 2018
Yaramazlar Takımı: Zaman Yolcuları (Smeshariki. Dezha vyu) - 2018 - TR - BRRip XviD BroserBros 0 32 25-11-2020, Saat: 17:59
Son Yorum: BroserBros

Hızlı Menü: