Hoşgeldin, Ziyaretçi: Giriş Yap Üye Ol


Konuyu Oyla:
  • Derecelendirme: 0/5 - 0 oy
  • 1
  • 2
  • 3
  • 4
  • 5
Hatfields & McCoys: Bölüm 2 (2012) Türkçe Dublaj m720P İndir
#1
Filmin Yayınlanma Tarihi: 2012 

indirme türü


Bulut + Premium

vizyon tarihi


28 Mayıs 2012

Boyutlar


1,16GB

diller


[TR]

altyazilar


Yok [Eklenebilir]

Video Format: Mkv


Matroska (.MKV)

Video Detay


MPEG-4, 1265 Kbps, 0,89 GB

imdb puanı


8,1 / 10,0 / 20,000

süre


102 dakika

Ses Kodek: AC3


Audio Coding 3 (AC3)

Ses Detay


384 Kbps, 6 Kanal, 271 Mb

rarsifresi


filmbol.org

Editör Puanı


7,0

Genislik Yukseklik


1280x720

sürüm


x264 | m720P




Film Detayları

History Channel'dan üç bölümlük bir western. Batı Virginia'da birbirilerine düşman olan iki aile Hatfield'lar ve McCoy'ların öyküsü. Dizinin başrollerinde ise iki büyük isim var; Kevin Costner ve Bill Paxton.


Teknik Detaylar

Kod:
General
Format                                   : Matroska
Format version                           : Version 4 / Version 2
File size                                : 1.16 GiB
Duration                                 : 1h 38mn
Overall bit rate                         : 1 682 Kbps
Movie name                               : Hatfields and McCoys 2 - Filmbol.org

Video
ID                                       : 1
Format                                   : AVC
Format/Info                              : Advanced Video Codec
Format profile                           : Main@L3.1
Format settings, CABAC                   : Yes
Format settings, ReFrames                : 2 frames
Codec ID                                 : V_MPEG4/ISO/AVC
Duration                                 : 1h 38mn
Bit rate                                 : 1 265 Kbps
Width                                    : 1 280 pixels
Height                                   : 720 pixels
Display aspect ratio                     : 16:9
Frame rate mode                          : Constant
Frame rate                               : 23.976 fps
Color space                              : YUV
Chroma subsampling                       : 4:2:0
Bit depth                                : 8 bits
Scan type                                : Progressive
Bits/(Pixel*Frame)                       : 0.057
Stream size                              : 893 MiB (75%)
Title                                    : m720P - Filmbol.org
Language                                 : English
Default                                  : Yes
Forced                                   : No

Audio
ID                                       : 2
Format                                   : AC-3
Format/Info                              : Audio Coding 3
Mode extension                           : CM (complete main)
Format settings, Endianness              : Big
Codec ID                                 : A_AC3
Duration                                 : 1h 38mn
Bit rate mode                            : Constant
Bit rate                                 : 384 Kbps
Channel(s)                               : 6 channels
Channel positions                        : Front: L C R, Side: L R, LFE
Sampling rate                            : 48.0 KHz
Bit depth                                : 16 bits
Compression mode                         : Lossy
Stream size                              : 271 MiB (23%)
Title                                    : Türkçe - Filmbol.org
Language                                 : Turkish
Default                                  : Yes
Forced                                   : No



Film Detayları


Hatfields and McCoys

Hatfields and McCoys

Hatfields and McCoys

Hatfields and McCoys


Film Fragmanı


Film Detayları

Mini 720P İndir


Turbobit İle İndir

Mega ile indir

Uptobox ile indir

Cloud Ru ile indir

 
Alinti
  


Konu ile Alakalı Benzer Konular
Konular Yazar Yorumlar Okunma Son Yorum
Filmin Yayınlanma Tarihi: 2012 Hatfields & McCoys: Bölüm 3 Türkçe Dublaj m720P İndir BroserBros 0 417 24-01-2017, Saat: 23:26
Son Yorum: BroserBros
Filmin Yayınlanma Tarihi: 2012 Hatfields & McCoys: Bölüm 1 Türkçe Dublaj m720P İndir BroserBros 0 465 24-01-2017, Saat: 22:52
Son Yorum: BroserBros

Hızlı Menü:


Şu anda bu konuyu okuyanlar: 1 Ziyaretçi