Hoşgeldin, Ziyaretçi: Giriş Yap Üye Ol


stats
Adblock'u kapattıysanız tıklayın.
Hoşgeldiniz!
Filmbol'u tercih ettiğiniz için teşekkürler, ancak ablock kullanarak devam edemezsiniz.
Merak etmeyin. Heryerden ardı ardına çıkan reklamlar görmeyeceksiniz :)

Sadece site içi 1 reklam göreceksin ve bu site gezintini etkilemeyecek.
Konuyu Oyla:
  • Derecelendirme: 0/5 - 0 oy
  • 1
  • 2
  • 3
  • 4
  • 5
Title: Hatfields & McCoys: Bölüm 1 Türkçe Dublaj Brrip-Xvid İndir
Gösterim Stili
#1
Filmin Yayınlanma Tarihi: 2012 

indirme türü


Bulut + Premium

vizyon tarihi


28 Mayıs 2012

Boyutlar


1,10GB

diller


[TR]

altyazilar


Yok [Eklenebilir]

Video Format: Avi


Audio Video Interleave (.AVI)

Video Detay


MPEG-4, 1404 Kbps, 1,01 GB

imdb puanı


8,1 / 10,0 / 20,000

süre


102 dakika

Ses Kodek: MP3


MPEG-1 Audio Layer III (MP3)

Ses Detay


128 Kbps, 2 Kanal, 94 Mb

rarsifresi


filmbol.org

Editör Puanı


7,0

Genislik Yukseklik


720x304

sürüm


h263 | Brrip-Xvid



Film Detayları

History Channel'dan üç bölümlük bir western. Batı Virginia'da birbirilerine düşman olan iki aile Hatfield'lar ve McCoy'ların öyküsü. Dizinin başrollerinde ise iki büyük isim var; Kevin Costner ve Bill Paxton.


Teknik Detaylar
Kod:
General
Format                                   : AVI
Format/Info                              : Audio Video Interleave
File size                                : 1.11 GiB
Duration                                 : 1h 42mn
Overall bit rate                         : 1 545 Kbps

Video
ID                                       : 0
Format                                   : MPEG-4 Visual
Format profile                           : Simple@L1
Format settings, BVOP                    : No
Format settings, QPel                    : No
Format settings, GMC                     : No warppoints
Format settings, Matrix                  : Default (H.263)
Codec ID                                 : FMP4
Duration                                 : 1h 42mn
Bit rate                                 : 1 404 Kbps
Width                                    : 720 pixels
Height                                   : 404 pixels
Display aspect ratio                     : 16:9
Frame rate                               : 23.976 fps
Color space                              : YUV
Chroma subsampling                       : 4:2:0
Bit depth                                : 8 bits
Scan type                                : Progressive
Compression mode                         : Lossy
Bits/(Pixel*Frame)                       : 0.201
Stream size                              : 1.01 GiB (91%)
Writing library                          : Lavc56.41.100

Audio
ID                                       : 1
Format                                   : MPEG Audio
Format version                           : Version 1
Format profile                           : Layer 3
Mode                                     : Joint stereo
Mode extension                           : MS Stereo
Codec ID                                 : 55
Codec ID/Hint                            : MP3
Duration                                 : 59mn 0s
Source duration                          : 1h 42mn
Bit rate mode                            : Constant
Bit rate                                 : 128 Kbps
Channel(s)                               : 2 channels
Sampling rate                            : 48.0 KHz
Compression mode                         : Lossy
Stream size                              : 93.9 MiB (8%)
Alignment                                : Aligned on interleaves
Interleave, duration                     : 24 ms (0.58 video frame)



Film Detayları


Hatfields and McCoys

Hatfields and McCoys

Hatfields and McCoys

Hatfields and McCoys

Hatfields and McCoys


Film Fragmanı


Film Detayları

Brrip İndir


Turbobit İle İndir

Mega ile indir

Uptobox ile indir

Mypcloud ile indir

 
Cevapla
#2
Elinize sağlık
 
Cevapla
  


Konu ile Alakalı Benzer Konular
Konular Yazar Yorumlar Okunma Son Yorum
Filmin Yayınlanma Tarihi: 2016 Bir Ulusun Doğuşu (The Birth of a Nation) Türkçe Dublaj Brrip-Xvid İndir BroserBros 1 901 13-09-2019, Saat: 12:47
Son Yorum: BroserBros
Filmin Yayınlanma Tarihi: 2018 Soğuk Savaş (Zimna wojna) Türkçe Dublaj Brrip Xvid İndir BroserBros 0 78 08-08-2019, Saat: 19:12
Son Yorum: BroserBros
Filmin Yayınlanma Tarihi: 2019 Operation Brothers (The Red Sea Diving Resort) Türkçe Dublaj Brrip Xvid İndir BroserBros 0 111 04-08-2019, Saat: 20:34
Son Yorum: BroserBros
Filmin Yayınlanma Tarihi: 2018 Sarayın Gözdesi (2018) Türkçe Dublaj Brrip Xvid İndir BroserBros 0 107 24-07-2019, Saat: 17:22
Son Yorum: BroserBros
Filmin Yayınlanma Tarihi: 2018 The Post Türkçe Dublaj Brrip-Xvid İndir BroserBros 1 466 17-02-2019, Saat: 19:13
Son Yorum: mehmet_akif

Hızlı Menü:


Browsing: 1 Ziyaretçi