Filmbol Forum Film İndir BRRip XviD v Harry Potter ve Sırlar Odası (Chamber of Secrets) Türkçe Dublaj Brrip Xvid İndir
Filmbol'da moderatör olmak ister misiniz? Bizimle iletişime geçmek için tıklayın!
Harry Potter ve Sırlar Odası (Chamber of Secrets) Türkçe Dublaj Brrip Xvid İndir
BroserBros
Harry Potter ve Sırlar Odası (Chamber of Secrets) Türkçe Dublaj Brrip Xvid İndir
3
1424
  • Derecelendirme: 0/5 - 0 oy
  • 1
  • 2
  • 3
  • 4
  • 5
Konuyu Okuyanlar:1 Ziyaretçi
Şuan Online!
Filmin Yayınlanma Tarihi: 2002 
Şuan Online!
BroserBros Kurucu Admin
*******
Admin

indirme türü


Bulut + Premium

Vizyon Tarihi


29 Kasım 2002

Boyutlar


1,44

diller


[TR]

altyazilar


Yok [Eklenebilir]

Video Format: Avi


Audio Video Interleave (.AVI)

Video Detay


MPEG-4, 1155 Kbps, 1,30GB

imdb puanı


7,4 / 10,0 / 500,000

süre


161 dakika

Ses Kodek: MP3


MPEG-1 Audio Layer III (MP3)

Ses Detay


128 Kbps, 2 Kanal, 147Mb

Editör Puanı


7,5

Genislik Yukseklik


719-301

sürüm


h263 | Brrip Xvid




Harry Potter ve Sirlar Odasi


Film Detayları

Harry'nin yanlarında kalmak zorunda olduğu için yanlarında kaldığı ailesi olan Dursley'ler Harry'ye kötü davranmaya devam etmektedirler. Harry de bu eziyetten kurtulmak için bir an önce çok sevdiği okulu Hogwarts'a dönmenin hayallerini kurmaktadır. Vakit gelir ve Harry hazırlanmaya başlar ancak bir elf olan Dobby onu uyararak okula döndüğünde çok büyük bir felaketle karşılaşacağı yönünde uyarır. Sırlar odası açılmıştır ve çok karanlık bir güç Hogwarts'ın üzerinde egemen olmaya başlamıştır.

Harry Potter ve Sırlar Odası (Harry Potter and the Chamber of Secrets) Filmi Imdb'den 500,000 kişi tarafından oylandı ve 7,4 puan aldı. Bu film için editör puanı 7,5 olarak belirlendi. İyi Seyirler!


Teknik Detaylar

Kod :
General
Complete name                            : Harry.Potter.ve.Sırlar.Odası.2002.BRRip.XViD.TR.Filmbol.avi
Format                                   : AVI
Format/Info                              : Audio Video Interleave
File size                                : 1.46 GiB
Duration                                 : 2h 40mn
Overall bit rate                         : 1 296 Kbps

Video
ID                                       : 0
Format                                   : MPEG-4 Visual
Format profile                           : Simple@L1
Format settings, BVOP                    : No
Format settings, QPel                    : No
Format settings, GMC                     : No warppoints
Format settings, Matrix                  : Default (H.263)
Codec ID                                 : FMP4
Duration                                 : 2h 40mn
Bit rate                                 : 1 155 Kbps
Width                                    : 719 pixels
Height                                   : 301 pixels
Display aspect ratio                     : 2.40:1
Frame rate                               : 23.976 fps
Color space                              : YUV
Chroma subsampling                       : 4:2:0
Bit depth                                : 8 bits
Scan type                                : Progressive
Compression mode                         : Lossy
Bits/(Pixel*Frame)                       : 0.223
Stream size                              : 1.30 GiB (89%)
Writing library                          : Lavc54.92.100

Audio
ID                                       : 1
Format                                   : MPEG Audio
Format version                           : Version 1
Format profile                           : Layer 3
Mode                                     : Joint stereo
Mode extension                           : MS Stereo
Codec ID                                 : 55
Codec ID/Hint                            : MP3
Duration                                 : 2h 40mn
Bit rate mode                            : Constant
Bit rate                                 : 128 Kbps
Channel(s)                               : 2 channels
Sampling rate                            : 48.0 KHz
Compression mode                         : Lossy
Stream size                              : 147 MiB (10%)
Alignment                                : Aligned on interleaves
Interleave, duration                     : 24 ms (0.58 video frame)



Film Detayları


Harry Potter ve Sirlar Odasi

Harry Potter ve Sirlar Odasi

Harry Potter ve Sirlar Odasi


Film Fragmanı


Film Detayları

Brrip İndir

Uptobox ile indir

1Fichier ile indir

1Fichier'den İndiremiyor musun? Tıklayın!


LetsUpload ile indir

Mega ile indir

Şuan Offine!
Şuan Offine!
eseferler Uzman Üye
**
Uzman Üye

  • Konular0
  • Mesajlar6
  • Rep puanı 0
tesekkürler....güzel film
Şuan Offine!
Şuan Offine!
Gazi1258 Yeni Üye
*
Üye

  • Konular0
  • Mesajlar4
  • Rep puanı 0
Guzel
Şuan Offine!
Şuan Offine!
erat20 Yeni Üye
*
Üye

  • Konular0
  • Mesajlar1
  • Rep puanı 0
güzel


Konu ile Alakalı Benzer Konular
Konular Yazar Yorumlar Okunma Son Yorum
Filmin Yayınlanma Tarihi: 2020
Deathstroke Şövalyeler ve Ejderhalar (Deathstroke Knights & Dragons: The Movie) - 2020 - TR - BRRip XviD BroserBros 0 35 23-11-2020, Saat: 18:30
Son Yorum: BroserBros
Filmin Yayınlanma Tarihi: 2019
15 Dakika Savaş (L'intervention) - 2019 - TR - BRRip XviD BroserBros 0 34 23-11-2020, Saat: 17:42
Son Yorum: BroserBros
Filmin Yayınlanma Tarihi: 2020
Sürprizli Gece (The Sleepover) - 2020 - TR - BRRip XviD BroserBros 0 36 23-11-2020, Saat: 16:18
Son Yorum: BroserBros
Filmin Yayınlanma Tarihi: 2020
Feride (Feride) - 2020 - TR - BRRip XviD BroserBros 0 37 22-11-2020, Saat: 17:58
Son Yorum: BroserBros
Filmin Yayınlanma Tarihi: 2019
Gel Babacığına (Come to Daddy) - 2019 - TR - BRRip XviD BroserBros 0 32 22-11-2020, Saat: 17:43
Son Yorum: BroserBros

Hızlı Menü: