Filmbol Forum Film İndir 720P v Harry Potter ve Sırlar Odası (Chamber of Secrets) Türkçe Dublaj BLURAY m720P İndir
Mega linklerinin şikayet edilmemesi için global erişime kapatıp sadece yorum yapanlara açıyoruz. Bu linkleri gizleme işlemini mecburen yapıyoruz ve yorum yapmanızın siteye değil size faydası vardır. Teşekürler yazmayı çok görüp, Random/Spam mesajlar atarak Mega linklerini açmaya çalışan kullanıcılara önce süresiz ban, devam ederse IP ban atacağız.
Filmbol'da moderatör olmak ister misiniz? Bizimle iletişime geçmek için tıklayın!
Harry Potter ve Sırlar Odası (Chamber of Secrets) Türkçe Dublaj BLURAY m720P İndir
BroserBros
Harry Potter ve Sırlar Odası (Chamber of Secrets) Türkçe Dublaj BLURAY m720P İndir
18
2815
  • Derecelendirme: 0/5 - 0 oy
  • 1
  • 2
  • 3
  • 4
  • 5
Konuyu Okuyanlar:1 Ziyaretçi
Şuan Online!
Filmin Yayınlanma Tarihi: 2002 
WWW
Şuan Online!
BroserBros Kurucu Admin
*******
Admin





Ses Kodek: AC3


Audio Coding 3 (AC3)






Harry Potter ve Sirlar Odasi



Teknik Detaylar

Kod :
General
Complete name                            : Harry.Potter.ve.Sırlar.Odası.2002.m720p.BLURAY.x264.TR.Filmbol.mkv
Format                                   : Matroska
Format version                           : Version 4 / Version 2
File size                                : 1.70 GiB
Duration                                 : 2h 40mn
Overall bit rate                         : 1 513 Kbps
Movie name                               : Harry Potter ve Sırlar Odası (2002) - Filmbol.org
Encoded date                             : UTC 2019-09-17 05:39:15
Writing application                      : mkvmerge v35.0.0 ('All The Love In The World') 64-bit
Writing library                          : libebml v1.3.9 + libmatroska v1.5.2

Video
ID                                       : 1
Format                                   : AVC
Format/Info                              : Advanced Video Codec
Format profile                           : [email protected]
Format settings, CABAC                   : Yes
Format settings, ReFrames                : 4 frames
Codec ID                                 : V_MPEG4/ISO/AVC
Duration                                 : 2h 40mn
Bit rate                                 : 1 320 Kbps
Width                                    : 1 280 pixels
Height                                   : 536 pixels
Display aspect ratio                     : 2.40:1
Frame rate mode                          : Constant
Frame rate                               : 23.976 (24000/1001) fps
Color space                              : YUV
Chroma subsampling                       : 4:2:0
Bit depth                                : 8 bits
Scan type                                : Progressive
Bits/(Pixel*Frame)                       : 0.080
Stream size                              : 1.48 GiB (87%)
Title                                    : 720P - Filmbol.org
Writing library                          : x264 core 130
Language                                 : English
Default                                  : Yes
Forced                                   : No

Audio
ID                                       : 2
Format                                   : AC-3
Format/Info                              : Audio Coding 3
Mode extension                           : CM (complete main)
Format settings, Endianness              : Big
Codec ID                                 : A_AC3
Duration                                 : 2h 40mn
Bit rate mode                            : Constant
Bit rate                                 : 192 Kbps
Channel(s)                               : 2 channels
Channel positions                        : Front: L R
Sampling rate                            : 48.0 KHz
Frame rate                               : 31.250 fps (1536 spf)
Compression mode                         : Lossy
Stream size                              : 221 MiB (13%)
Title                                    : Türkçe - Filmbol.org
Language                                 : Turkish
Default                                  : Yes
Forced                                   : No



Film Detayları


Harry Potter ve Sirlar Odasi

Harry Potter ve Sirlar Odasi

Harry Potter ve Sirlar Odasi


Film Fragmanı


Film Detayları

Mini 720P İndir


Uptobox ile indir

Mega linki şuan da gizli. Kullanıma açmak için konuya yorum yapın ve ardından sayfayı yenileyin.

Mega


MediaFire ile indir

Şuan Offine!
Şuan Offine!
firatcan142 Yeni Üye
*
Üye

  • Konular0
  • Mesajlar5
  • Rep puanı 0
fsafafsafasgagas
Şuan Online!
Şuan Online!
Dralix Uzman Üye
**
Uzman Üye

  • Konular0
  • Mesajlar5
  • Rep puanı 0
Teşekkürler.
Şuan Offine!
Şuan Offine!
ErtugrulAkkus Uzman Üye
**
Uzman Üye

  • Konular0
  • Mesajlar6
  • Rep puanı 0
asdsad
Şuan Offine!
Şuan Offine!
thor Süper Üye
***
Super Üye

  • Konular0
  • Mesajlar34
  • Rep puanı 0
Super film
Şuan Offine!
Şuan Offine!
Vortex17 Yeni Üye
*
Üye

  • Konular0
  • Mesajlar2
  • Rep puanı 0
güzel  (y)
Şuan Offine!
Şuan Offine!
emre4706 Uzman Üye
**
Uzman Üye

  • Konular0
  • Mesajlar7
  • Rep puanı 0
zdbdfnfdzgn
Şuan Offine!
Şuan Offine!
halilca1514 Yeni Üye
*
Üye

  • Konular0
  • Mesajlar2
  • Rep puanı 0
fgregfss
Şuan Offine!
Şuan Offine!
tenteci Uzman Üye
**
Uzman Üye

  • Konular0
  • Mesajlar17
  • Rep puanı 0
teşekkürler
Şuan Offine!
Şuan Offine!
ardatkby Yeni Üye
*
Üye

  • Konular0
  • Mesajlar1
  • Rep puanı 0
teşekkür


Konu ile Alakalı Benzer Konular
Konular Yazar Yorumlar Okunma Son Yorum
Filmin Yayınlanma Tarihi: 2019
Godzilla 2: Canavarlar Kralı (King of the Monsters) Türkçe Dublaj BLURAY m720P İndir BroserBros 15 1,693 4 saat önce
Son Yorum: OsmanSKMN
Filmin Yayınlanma Tarihi: 2018
Venom: Zehirli Öfke (2018) Türkçe Dublaj Bluray m720P İndir BroserBros 16 2,416 27-02-2021, Saat: 19:14
Son Yorum: Strange
Filmin Yayınlanma Tarihi: 2019
Alev Kapanı 2 (Backdraft 2) Türkçe Dublaj BLURAY 720P indir BroserBros 1 204 27-02-2021, Saat: 13:17
Son Yorum: BroserBros
Filmin Yayınlanma Tarihi: 2019
Büyükbabalar Yuvada (Grand-Daddy Day Care) Türkçe Dublaj BLURAY 720P indir BroserBros 1 233 27-02-2021, Saat: 13:11
Son Yorum: BroserBros
Filmin Yayınlanma Tarihi: 2018
Kediler (Cats and Peachtopia) Türkçe Dublaj BLURAY 720P indir BroserBros 1 212 27-02-2021, Saat: 13:04
Son Yorum: BroserBros

Hızlı Menü: