Filmbol Forum Film İndir BRRip XviD v Harry Potter ve Ölüm Yadigarları: Bölüm 2 (2011) Türkçe Dublaj Brrip Xvid İndi
Filmbol'da moderatör olmak ister misiniz? Bizimle iletişime geçmek için tıklayın!
Harry Potter ve Ölüm Yadigarları: Bölüm 2 (2011) Türkçe Dublaj Brrip Xvid İndi
BroserBros
Harry Potter ve Ölüm Yadigarları: Bölüm 2 (2011) Türkçe Dublaj Brrip Xvid İndi
2
778
  • Derecelendirme: 0/5 - 0 oy
  • 1
  • 2
  • 3
  • 4
  • 5
Konuyu Okuyanlar:1 Ziyaretçi
Şuan Online!
Filmin Yayınlanma Tarihi: 2011 
Şuan Online!
BroserBros Kurucu Admin
*******
Admin

indirme türü


Bulut + Premium

Vizyon Tarihi


13 Haziran 2011

Boyutlar


1,46

diller


[TR]

altyazilar


Yok [Eklenebilir]

Video Format: Avi


Audio Video Interleave (.AVI)

Video Detay


MPEG-4, 1460 Kbps, 1,33GB

imdb puanı


8,1 / 10,0 / 705,000

süre


130 dakika

Ses Kodek: MP3


MPEG-1 Audio Layer III (MP3)

Ses Detay


128 Kbps, 2 Kanal, 119 Mb

Editör Puanı


8,5

Genislik Yukseklik


720-300

sürüm


h263 | Brrip Xvid




Harry Potter ve Olum Yadigarlari Bolum 2


Film Detayları

Harry Potter Ve Ölüm Yadigarları: Bölüm 2'de, Lord Voldemort'un ruhunun parçalarının bir kısmını bulup yok eden Harry, Ron ve Hermione, Dumbledore'un verdiği görevi tamamlamak için arayışlarını sürdürürlerken Ölüm Yiyenler'le bir ölüm kalım savaşına çıkacaklardır. Voldemort artık iyice güçlenmiş olsa da, hem Lord'dan kaçmak hem de Ölüm Yiyenler'i etkisiz hale getirip Hortkuluklar'ı da yok etmek zorunda kalacak ekip, Ölüm Yadigârları'nın sırrına erişmek için ellerinden geleni yapacaklardır.

Serinin en görkemli savaşı başlamaktadır, artık hiçbir şey ve hiçbir yer güvenli değildir. Sona yaklaşılmıştır. İki tarafın da tüm güçlerini ortaya serecekleri bu savaşta Harry Potter da geçmişiyle ilgili pek çok şeyi öğreneceği kadar, en büyük fedakarlığı da yapmak zorundadır.

Harry Potter ve Ölüm Yadigarları: Bölüm 2 (Harry Potter and the Deathly Hallows: Part 2) Filmi Imdb'den 705,000 kişi tarafından oylandı ve 8,1 puan aldı. Bu film için editör puanı 8,5 olarak belirlendi. İyi Seyirler!


Teknik Detaylar
Kod :
General
Complete name                            : Harry.Potter.Ve.Ölüm.Yadigarları.Bölüm.2.2011.BRRip.XViD.TR.Filmbol.avi
Format                                   : AVI
Format/Info                              : Audio Video Interleave
File size                                : 1.46 GiB
Duration                                 : 2h 10mn
Overall bit rate                         : 1 601 Kbps

Video
ID                                       : 0
Format                                   : MPEG-4 Visual
Format profile                           : Simple@L1
Format settings, BVOP                    : No
Format settings, QPel                    : No
Format settings, GMC                     : No warppoints
Format settings, Matrix                  : Default (H.263)
Codec ID                                 : FMP4
Duration                                 : 2h 10mn
Bit rate                                 : 1 460 Kbps
Width                                    : 720 pixels
Height                                   : 300 pixels
Display aspect ratio                     : 2.40:1
Frame rate                               : 23.976 fps
Color space                              : YUV
Chroma subsampling                       : 4:2:0
Bit depth                                : 8 bits
Scan type                                : Progressive
Compression mode                         : Lossy
Bits/(Pixel*Frame)                       : 0.282
Stream size                              : 1.33 GiB (91%)
Writing library                          : Lavc54.92.100

Audio
ID                                       : 1
Format                                   : MPEG Audio
Format version                           : Version 1
Format profile                           : Layer 3
Mode                                     : Joint stereo
Mode extension                           : MS Stereo
Codec ID                                 : 55
Codec ID/Hint                            : MP3
Duration                                 : 2h 10mn
Bit rate mode                            : Constant
Bit rate                                 : 128 Kbps
Channel(s)                               : 2 channels
Sampling rate                            : 48.0 KHz
Compression mode                         : Lossy
Stream size                              : 119 MiB (8%)
Alignment                                : Aligned on interleaves
Interleave, duration                     : 24 ms (0.58 video frame)




Film Detayları


Harry Potter Olum Yadigarlari Bolum 2

Harry Potter Olum Yadigarlari Bolum 2

Harry Potter Olum Yadigarlari Bolum 2



Film Fragmanı


Film Detayları

Brrip İndir

Uptobox ile indir

Mega ile indir

MediaFire ile indir

Şuan Offine!
Şuan Offine!
denizz.demr12 Yeni Üye
*
Üye

  • Konular0
  • Mesajlar2
  • Rep puanı 0
güzelmiş
Şuan Offine!
Şuan Offine!
muhittinnnnn Yeni Üye
*
Üye

  • Konular0
  • Mesajlar2
  • Rep puanı 0
sdzada


Konu ile Alakalı Benzer Konular
Konular Yazar Yorumlar Okunma Son Yorum
Filmin Yayınlanma Tarihi: 2019
Hain (The Traitor / Il traditore) - 2019 - TR - BRRip XviD BroserBros 0 24 , Saat: 16:04
Son Yorum: BroserBros
Filmin Yayınlanma Tarihi: 2020
All Together Now (All Together Now) - 2020 - TR - BRRip XviD BroserBros 0 20 , Saat: 15:49
Son Yorum: BroserBros
Filmin Yayınlanma Tarihi: 2018
Vita & Virginia (Vita ve Virginia) - 2018 - TR - BRRip XviD BroserBros 0 19 , Saat: 15:31
Son Yorum: BroserBros
Filmin Yayınlanma Tarihi: 2019
Ibiza (Ibiza) - 2019 - TR - BRRip XviD BroserBros 0 22 , Saat: 14:56
Son Yorum: BroserBros
Filmin Yayınlanma Tarihi: 2018
Yaramazlar Takımı: Zaman Yolcuları (Smeshariki. Dezha vyu) - 2018 - TR - BRRip XviD BroserBros 0 32 25-11-2020, Saat: 17:59
Son Yorum: BroserBros

Hızlı Menü: