Filmbol Forum Film İndir BRRip XviD v Harry Potter ve Ölüm Yadigarları: Bölüm 1 (2010) Türkçe Dublaj Brrip Xvid İndir
Filmbol'da moderatör olmak ister misiniz? Bizimle iletişime geçmek için tıklayın!
Harry Potter ve Ölüm Yadigarları: Bölüm 1 (2010) Türkçe Dublaj Brrip Xvid İndir
BroserBros
Harry Potter ve Ölüm Yadigarları: Bölüm 1 (2010) Türkçe Dublaj Brrip Xvid İndir
2
486
  • Derecelendirme: 0/5 - 0 oy
  • 1
  • 2
  • 3
  • 4
  • 5
Konuyu Okuyanlar:1 Ziyaretçi
Şuan Online!
Filmin Yayınlanma Tarihi: 2010 
Şuan Online!
BroserBros Kurucu Admin
*******
Admin

indirme türü


Bulut + Premium

Vizyon Tarihi


17 Kasım 2010

Boyutlar


1,64

diller


[TR]

altyazilar


Yok [Eklenebilir]

Video Format: Avi


Audio Video Interleave (.AVI)

Video Detay


MPEG-4, 1489 Kbps, 1,52 GB

imdb puanı


7,7 / 10,0 / 440,000

süre


146 dakika

Ses Kodek: MP3


MPEG-1 Audio Layer III (MP3)

Ses Detay


128 Kbps, 2 Kanal, 134Mb

Editör Puanı


8,0

Genislik Yukseklik


720-310

sürüm


h263 | Brrip Xvid




harry potter olum yadigarlari bolum 1 


Film Detayları

Hogwarts'ın maceraperest talebeleri Harry, Ron ve Hermione; Voldemort'un ölümsüzlük sırrını barındıran Hortkuluklar'ın izini sürmek amacındadırlar. Bu şer odağını yoketmek görevini üstlenerek yola çıkan kahramanlarımız, profesörlerinin yönlendirmelerinden uzak ve Dumbledore'un korumasından muaf, tek başlarına yola çıkmışlardır. Üç can dost şimdi herzamankinden daha fazla birbirlerine güvenmek zorundadır. Ancak, onları tehdit ederek ayrı düşmelerini sağlamak isteyen Karanlık Güçler de fitne çıkarmak için peşlerindedir. Bu arada, büyücülük dünyası Karanlık Lord'un tüm düşmanları için tehlikeli bir yer haline dönüşmüştür. Uzun zamandır korkulan savaş başlamış ve Voldemort'un Ölüm Yiyicileri Büyü Bakanlığı'nın kotrolünü zorla ele geçirerek terör estirmektedir. Kendilerinden olmayan herkesi tutuklamaktadırlar. Ama, Voldemort için en değerli olan ganimeti; Harry Potter'i bir türlü ele geçiremezler. Seçilmiş kişi artık aranan kişidir ve Ölüm Yiyiciler Voldemort'a canlı olarak teslim etmek üzere onu aramaktadırlar. Harry'nin tek umudu Voldemort onu bulmadan önce Hortkuluklar'ı bulmaktır. Ama, ipuçlarını araştırdıkça neredeyse unutulmuş olan eski bir efsaneyi ortaya çıkartır. Ölüm Yadigarları'nın efsanesi. Eğer bu efsane gerçekleşirse, Voldemort aradığı üstün güce erişebilecektir. Aslında Harry'nin geleceği, geçmişte yaşadığı ve tüm geleceğini etkileyen sağ kalan çocuk olduğu kader günü de belirlenmiştir. O, artık sadece bir çocuk değildir, Harry Potter, Hogwarts'a ilk adımını attığı günden beri hazırlanmakta olduğu Voldemort'la nihai mücadelesine giderek daha da yaklaşmaktadır.
 
Harry Potter ve Ölüm Yadigarları: Bölüm 1 (Harry Potter and the Deathly Hallows: Part 1) Filmi Imdb'den 440,000 kişi tarafından oylandı ve 7,7 puan aldı. Bu film için editör puanı 8,0 olarak belirlendi. İyi Seyirler!


Teknik Detaylar


Kod :
General
Complete name                            : Harry.Potter.Ve.Ölüm.Yadigarları.Bölüm.1.2010.BRRip.XViD.TR.Filmbol.avi
Format                                   : AVI
Format/Info                              : Audio Video Interleave
File size                                : 1.66 GiB
Duration                                 : 2h 26mn
Overall bit rate                         : 1 630 Kbps

Video
ID                                       : 0
Format                                   : MPEG-4 Visual
Format profile                           : Simple@L1
Format settings, BVOP                    : No
Format settings, QPel                    : No
Format settings, GMC                     : No warppoints
Format settings, Matrix                  : Default (H.263)
Codec ID                                 : FMP4
Duration                                 : 2h 26mn
Bit rate                                 : 1 489 Kbps
Width                                    : 720 pixels
Height                                   : 310 pixels
Display aspect ratio                     : 2.35:1
Frame rate                               : 23.976 fps
Color space                              : YUV
Chroma subsampling                       : 4:2:0
Bit depth                                : 8 bits
Scan type                                : Progressive
Compression mode                         : Lossy
Bits/(Pixel*Frame)                       : 0.278
Stream size                              : 1.52 GiB (91%)
Writing library                          : Lavc56.41.100

Audio
ID                                       : 1
Format                                   : MPEG Audio
Format version                           : Version 1
Format profile                           : Layer 3
Mode                                     : Joint stereo
Mode extension                           : MS Stereo
Codec ID                                 : 55
Codec ID/Hint                            : MP3
Duration                                 : 2h 26mn
Bit rate mode                            : Constant
Bit rate                                 : 128 Kbps
Channel(s)                               : 2 channels
Sampling rate                            : 48.0 KHz
Compression mode                         : Lossy
Stream size                              : 134 MiB (8%)
Alignment                                : Aligned on interleaves
Interleave, duration                     : 24 ms (0.58 video frame)


Film Detayları


harry potter olum yadigarlari bolum 1

harry potter olum yadigarlari bolum 1

harry potter olum yadigarlari bolum 1


Film Fragmanı


Film Detayları

Brrip İndir


Uptobox ile indir

1Fichier ile indir

1Fichier'den İndiremiyor musun? Tıklayın!


LetsUpload ile indir

Mega ile indir

MediaFire ile indir

Şuan Offine!
Şuan Offine!
aaa23 Uzman Üye
**
Uzman Üye

  • Konular0
  • Mesajlar9
  • Rep puanı 0
teşekkürler
Şuan Offine!
Şuan Offine!
denizz.demr12 Yeni Üye
*
Üye

  • Konular0
  • Mesajlar2
  • Rep puanı 0
güzel


Konu ile Alakalı Benzer Konular
Konular Yazar Yorumlar Okunma Son Yorum
Filmin Yayınlanma Tarihi: 2020
Deathstroke Şövalyeler ve Ejderhalar (Deathstroke Knights & Dragons: The Movie) - 2020 - TR - BRRip XviD BroserBros 0 14 10 saat önce
Son Yorum: BroserBros
Filmin Yayınlanma Tarihi: 2019
15 Dakika Savaş (L'intervention) - 2019 - TR - BRRip XviD BroserBros 0 15 11 saat önce
Son Yorum: BroserBros
Filmin Yayınlanma Tarihi: 2020
Sürprizli Gece (The Sleepover) - 2020 - TR - BRRip XviD BroserBros 0 17 , Saat: 16:18
Son Yorum: BroserBros
Filmin Yayınlanma Tarihi: 2020
Feride (Feride) - 2020 - TR - BRRip XviD BroserBros 0 36 22-11-2020, Saat: 17:58
Son Yorum: BroserBros
Filmin Yayınlanma Tarihi: 2019
Gel Babacığına (Come to Daddy) - 2019 - TR - BRRip XviD BroserBros 0 31 22-11-2020, Saat: 17:43
Son Yorum: BroserBros

Hızlı Menü: