Filmbol Forum Film İndir 1080P v Harry Potter ve Ölüm Yadigarları: Bölüm 1 (2010) Türkçe Dublaj BLURAY m1080P İndir
Filmbol'da moderatör olmak ister misiniz? Bizimle iletişime geçmek için tıklayın!
Harry Potter ve Ölüm Yadigarları: Bölüm 1 (2010) Türkçe Dublaj BLURAY m1080P İndir
BroserBros
Harry Potter ve Ölüm Yadigarları: Bölüm 1 (2010) Türkçe Dublaj BLURAY m1080P İndir
13
1146
  • Derecelendirme: 0/5 - 0 oy
  • 1
  • 2
  • 3
  • 4
  • 5
Konuyu Okuyanlar:1 Ziyaretçi
Şuan Online!
Filmin Yayınlanma Tarihi: 2010 
Şuan Online!
BroserBros Kurucu Admin
*******
Admin

indirme türü


Bulut + Premium

Vizyon Tarihi


17 Kasım 2010

Boyutlar


2,33

diller


[TR]

altyazilar


Yok [Eklenebilir]

Video Format: Mkv


Matroska (.MKV)

Video Detay


MPEG-4, 2091 Kbps, 2,13 GB

imdb puanı


7,7 / 10,0 / 440,000

süre


146 dakika

Ses Kodek: AC3


Audio Coding 3 (AC3)

Ses Detay


192 Kbps, 2 Kanal, 201Mb

Editör Puanı


8,0

Genislik Yukseklik


1920-800

sürüm


x264 | 1080P




harry potter olum yadigarlari bolum 1 


Film Detayları

Hogwarts'ın maceraperest talebeleri Harry, Ron ve Hermione; Voldemort'un ölümsüzlük sırrını barındıran Hortkuluklar'ın izini sürmek amacındadırlar. Bu şer odağını yoketmek görevini üstlenerek yola çıkan kahramanlarımız, profesörlerinin yönlendirmelerinden uzak ve Dumbledore'un korumasından muaf, tek başlarına yola çıkmışlardır. Üç can dost şimdi herzamankinden daha fazla birbirlerine güvenmek zorundadır. Ancak, onları tehdit ederek ayrı düşmelerini sağlamak isteyen Karanlık Güçler de fitne çıkarmak için peşlerindedir. Bu arada, büyücülük dünyası Karanlık Lord'un tüm düşmanları için tehlikeli bir yer haline dönüşmüştür. Uzun zamandır korkulan savaş başlamış ve Voldemort'un Ölüm Yiyicileri Büyü Bakanlığı'nın kotrolünü zorla ele geçirerek terör estirmektedir. Kendilerinden olmayan herkesi tutuklamaktadırlar. Ama, Voldemort için en değerli olan ganimeti; Harry Potter'i bir türlü ele geçiremezler. Seçilmiş kişi artık aranan kişidir ve Ölüm Yiyiciler Voldemort'a canlı olarak teslim etmek üzere onu aramaktadırlar. Harry'nin tek umudu Voldemort onu bulmadan önce Hortkuluklar'ı bulmaktır. Ama, ipuçlarını araştırdıkça neredeyse unutulmuş olan eski bir efsaneyi ortaya çıkartır. Ölüm Yadigarları'nın efsanesi. Eğer bu efsane gerçekleşirse, Voldemort aradığı üstün güce erişebilecektir. Aslında Harry'nin geleceği, geçmişte yaşadığı ve tüm geleceğini etkileyen sağ kalan çocuk olduğu kader günü de belirlenmiştir. O, artık sadece bir çocuk değildir, Harry Potter, Hogwarts'a ilk adımını attığı günden beri hazırlanmakta olduğu Voldemort'la nihai mücadelesine giderek daha da yaklaşmaktadır.
 
Harry Potter ve Ölüm Yadigarları: Bölüm 1 (Harry Potter and the Deathly Hallows: Part 1) Filmi Imdb'den 440,000 kişi tarafından oylandı ve 7,7 puan aldı. Bu film için editör puanı 8,0 olarak belirlendi. İyi Seyirler!


Teknik Detaylar


Kod :
General
Complete name                            : Harry.Potter.Ve.Ölüm.Yadigarları.Bölüm.1.2010.m1080p.BLURAY.x264.TR.Filmbol.mkv
Format                                   : Matroska
Format version                           : Version 4 / Version 2
File size                                : 2.33 GiB
Duration                                 : 2h 26mn
Overall bit rate                         : 2 285 Kbps
Movie name                               : Harry Potter ve Ölüm Yadigarları Bölüm 1 (2010) - Filmbol.org
Encoded date                             : UTC 2019-09-08 07:05:03
Writing application                      : mkvmerge v35.0.0 ('All The Love In The World') 64-bit
Writing library                          : libebml v1.3.9 + libmatroska v1.5.2

Video
ID                                       : 1
Format                                   : AVC
Format/Info                              : Advanced Video Codec
Format profile                           : High@L4
Format settings, CABAC                   : Yes
Format settings, ReFrames                : 4 frames
Codec ID                                 : V_MPEG4/ISO/AVC
Duration                                 : 2h 26mn
Bit rate                                 : 2 091 Kbps
Width                                    : 1 920 pixels
Height                                   : 800 pixels
Display aspect ratio                     : 2.40:1
Frame rate mode                          : Constant
Frame rate                               : 23.976 (24000/1001) fps
Color space                              : YUV
Chroma subsampling                       : 4:2:0
Bit depth                                : 8 bits
Scan type                                : Progressive
Bits/(Pixel*Frame)                       : 0.057
Stream size                              : 2.13 GiB (92%)
Title                                    : 1080P - Filmbol.org
Writing library                          : x264 core 130
Language                                 : English
Default                                  : Yes
Forced                                   : No

Audio
ID                                       : 2
Format                                   : AC-3
Format/Info                              : Audio Coding 3
Mode extension                           : CM (complete main)
Format settings, Endianness              : Big
Codec ID                                 : A_AC3
Duration                                 : 2h 26mn
Bit rate mode                            : Constant
Bit rate                                 : 192 Kbps
Channel(s)                               : 2 channels
Channel positions                        : Front: L R
Sampling rate                            : 48.0 KHz
Frame rate                               : 31.250 fps (1536 spf)
Compression mode                         : Lossy
Stream size                              : 201 MiB (8%)
Title                                    : Türkçe - Filmbol.org
Language                                 : Turkish
Default                                  : Yes
Forced                                   : No


Film Detayları


harry potter olum yadigarlari bolum 1

harry potter olum yadigarlari bolum 1

harry potter olum yadigarlari bolum 1


Film Fragmanı


Film Detayları

Mini 1080P İndir


Uptobox ile indir

LetsUpload ile indir

Mega ile indir

MediaFire ile indir

Google Drive linki şuan da gizli. Kullanıma açmak için konuya yorum yapın ve ardından sayfayı yenileyin. Ayrıca bu linki açtığınızda reklamsız olarak erişebileceğinizi unutmayın.

Google Drive

Şuan Offine!
Şuan Offine!
fantom1980 Uzman Üye
**
Uzman Üye

  • Konular0
  • Mesajlar19
  • Rep puanı 0
1080 p görüntü güzel
Şuan Offine!
Şuan Offine!
atakantarhan Yeni Üye
*
Üye

  • Konular0
  • Mesajlar2
  • Rep puanı 0
asdas

1080 p görüntü güzel
Şuan Offine!
Şuan Offine!
AhdeM Uzman Üye
**
Uzman Üye

  • Konular0
  • Mesajlar6
  • Rep puanı 0
emeğe saygi
Şuan Offine!
Şuan Offine!
mertdemirefsanesi Uzman Üye
**
Uzman Üye

  • Konular0
  • Mesajlar10
  • Rep puanı 0
Gerçekten çok güzel film
Şuan Offine!
Şuan Offine!
eneskibaroglu Yeni Üye
*
Üye

  • Konular0
  • Mesajlar4
  • Rep puanı 0
Çok güzeldi
Şuan Offine!
Şuan Offine!
Forsa Uzman Üye
**
Uzman Üye

  • Konular0
  • Mesajlar7
  • Rep puanı 0
Teşekkürler
Şuan Offine!
Şuan Offine!
ahkna Süper Üye
***
Super Üye

  • Konular0
  • Mesajlar36
  • Rep puanı 0
Teşekkürler...
Şuan Offine!
Şuan Offine!
mhmt_dursun Yeni Üye
*
Üye

  • Konular0
  • Mesajlar3
  • Rep puanı 0
güzel film
Şuan Offine!
Şuan Offine!
Rocklion17 Uzman Üye
**
Uzman Üye

  • Konular0
  • Mesajlar22
  • Rep puanı 0
boomSmile


Konu ile Alakalı Benzer Konular
Konular Yazar Yorumlar Okunma Son Yorum
Filmin Yayınlanma Tarihi: 2019
Karlar Kraliçesi 4: Sihirli Ayna (Snezhnaya koroleva) Türkçe Dublaj m1080P İndir BroserBros 11 1,092 27-11-2020, Saat: 17:07
Son Yorum: Rdm
Filmin Yayınlanma Tarihi: 2019
Tolkien (2019) Türkçe Dublaj BLURAY m1080P İndir BroserBros 4 430 24-11-2020, Saat: 15:29
Son Yorum: Rocklion17
Filmin Yayınlanma Tarihi: 2019
Ralph ve İnternet (Ralph Breaks the Internet) Türkçe Dublaj BLURAY m1080P İndir BroserBros 15 1,116 21-11-2020, Saat: 18:10
Son Yorum: miyaavc
Filmin Yayınlanma Tarihi: 2018
Venom: Zehirli Öfke (2018) Türkçe Dublaj Bluray m1080P İndir DRMOV 43 4,185 19-11-2020, Saat: 22:42
Son Yorum: Cyberboi84
Filmin Yayınlanma Tarihi: 2007
Harry Potter ve Zümrüdüanka Yoldaşlığı (2007) Türkçe Dublaj BLURAY m1080P İndir BroserBros 16 1,237 17-11-2020, Saat: 18:33
Son Yorum: bllsr

Hızlı Menü: