Filmbol Forum Film İndir 720P v Harry Potter ve Melez Prens (Half-Blood Prince) Türkçe Dublaj BLURAY 720P İndir
Mega linklerinin şikayet edilmemesi için global erişime kapatıp sadece yorum yapanlara açıyoruz. Bu linkleri gizleme işlemini mecburen yapıyoruz ve yorum yapmanızın siteye değil size faydası vardır. Teşekürler yazmayı çok görüp, Random/Spam mesajlar atarak Mega linklerini açmaya çalışan kullanıcılara önce süresiz ban, devam ederse IP ban atacağız.
Filmbol'da moderatör olmak ister misiniz? Bizimle iletişime geçmek için tıklayın!
Harry Potter ve Melez Prens (Half-Blood Prince) Türkçe Dublaj BLURAY 720P İndir
BroserBros
Harry Potter ve Melez Prens (Half-Blood Prince) Türkçe Dublaj BLURAY 720P İndir
1
528
  • Derecelendirme: 0/5 - 0 oy
  • 1
  • 2
  • 3
  • 4
  • 5
Konuyu Okuyanlar:1 Ziyaretçi
Şuan Online!
Filmin Yayınlanma Tarihi: 2009 
WWW
Şuan Online!
BroserBros Kurucu Admin
*******
Admin








 Harry Potter ve Melez Prens



Fantastik Sinema fenomeni Harry Potter, bu defa serinin 6. kitabı Harry Potter ve Melez Prens uyarlamasıyla karşımızda. Sevimli kahramanımız Potter, Hogwarts’taki 6. Yılında bir sürpriz ile karşılaşır. Tesadüfen, üzerinde ‘bu kitap Melez Prens’e aittir’ yazılı bir kitap bulmasıyla kitabın içindeki büyüleri kurcalaması sonucu Melez Prens’in gizemini keşfetmeye koyulacaktır. Bilge büyücü Dumbledore’un yol arkadaşlığı, karanlık düşmanı Voldemort ile hesaplaşmasını kolaylaştırsa da, Harry Potter ve arkadaşlarını bu defa çok çetrefilli bir savaş beklemektedir.

Harry Potter ve Melez Prens (2009) (Harry Potter and the Half-Blood Prince) Filmi Imdb'den 450,000 kişi tarafından oylandı ve 7,6 puan aldı. Bu film için editör puanı 7,5 olarak belirlendi. İyi Seyirler!

Teknik Detaylar

Kod :
General Unique ID                                : 177848345859002339049149412784467265667 (0x85CC5871B3C8471847BDF9A59916C883) Complete name                            : /root/Desktop/9/Harry.Potter.ve.Melez.Prens.2009.m720p.BLURAY.x264.TR.Filmbol.mkv Format                                   : Matroska Format version                           : Version 4 / Version 2 File size                                : 822 MiB Duration                                 : 2h 33mn Overall bit rate                         : 749 Kbps Movie name                               : Harry Potter ve Melez Prens (2009) - Filmbol.org Encoded date                             : UTC 2019-11-14 03:01:28 Writing application                      : mkvmerge v35.0.0 ('All The Love In The World') 64-bit Writing library                          : libebml v1.3.9 + libmatroska v1.5.2  Video ID                                       : 1 Format                                   : AVC Format/Info                              : Advanced Video Codec Format profile                           : [email protected] Format settings, CABAC                   : Yes Format settings, ReFrames                : 5 frames Codec ID                                 : V_MPEG4/ISO/AVC Duration                                 : 2h 33mn Bit rate                                 : 555 Kbps Width                                    : 1 280 pixels Height                                   : 534 pixels Display aspect ratio                     : 2.35:1 Original display aspect ratio            : 2.35:1 Frame rate mode                          : Constant Frame rate                               : 23.976 (24000/1001) fps Color space                              : YUV Chroma subsampling                       : 4:2:0 Bit depth                                : 8 bits Scan type                                : Progressive Bits/(Pixel*Frame)                       : 0.034 Stream size                              : 609 MiB (74%) Title                                    : m720P - Filmbol.org Writing library                          : x264 core 68 r1183M f21daff Encoding settings                        : cabac=1 / ref=5 / deblock=1:-1:-1 / analyse=0x3:0x133 / me=umh / subme=7 / psy_rd=1.0:0.0 / mixed_ref=1 / me_range=16 / chroma_me=1 / trellis=2 / 8x8dct=1 / cqm=0 / deadzone=21,11 / chroma_qp_offset=-2 / threads=3 / nr=0 / decimate=1 / mbaff=0 / bframes=3 / b_pyramid=1 / b_adapt=2 / b_bias=0 / direct=3 / wpredb=1 / keyint=250 / keyint_min=25 / scenecut=40 / rc=2pass / bitrate=555 / ratetol=1.0 / qcomp=0.60 / qpmin=10 / qpmax=51 / qpstep=4 / cplxblur=20.0 / qblur=0.5 / ip_ratio=1.40 / pb_ratio=1.30 / aq=1:1.00 Default                                  : Yes Forced                                   : No  Audio ID                                       : 2 Format                                   : AC-3 Format/Info                              : Audio Coding 3 Mode extension                           : CM (complete main) Format settings, Endianness              : Big Codec ID                                 : A_AC3 Duration                                 : 2h 33mn Bit rate mode                            : Constant Bit rate                                 : 192 Kbps Channel(s)                               : 2 channels Channel positions                        : Front: L R Sampling rate                            : 48.0 KHz Frame rate                               : 31.250 fps (1536 spf) Compression mode                         : Lossy Stream size                              : 211 MiB (26%) Title                                    : Türkçe - Filmbol.org Language                                 : Turkish Default                                  : Yes Forced                                   : No

Film Detayları


 Harry Potter ve Melez Prens

 Harry Potter ve Melez Prens


Film Fragmanı


Film Detayları

Mini 720P İndir

Uptobox ile indir

Şuan Offine!
Şuan Offine!
miamix Yeni Üye
*
Üye

  • Konular0
  • Mesajlar3
  • Rep puanı 0
Linkler nerede Sad


Konu ile Alakalı Benzer Konular
Konular Yazar Yorumlar Okunma Son Yorum
Filmin Yayınlanma Tarihi: 2020
Her Zaman Şeytan (The Devil All the Time) - 2020 - TR+ORG - 720P | tt7395114 TheSteeL 0 24 11 saat önce
Son Yorum: TheSteeL
Filmin Yayınlanma Tarihi: 2020
Baba Aranıyor (Se busca papá) - 2020 - TR+ORG - 720P | tt12721188 TheSteeL 0 23 , Saat: 21:12
Son Yorum: TheSteeL
Filmin Yayınlanma Tarihi: 2019
Beyaz Kentin Sessizliği (El silencio de la ciudad blanca) - 2019 - TR+ORG - 720P | tt8393332 BroserBros 1 255 , Saat: 15:38
Son Yorum: BroserBros
Filmin Yayınlanma Tarihi: 2019
Frankenstein: Ölümsüzlerin Savaşı (I, Frankenstein) - 2014 - TR+ORG - 720P | tt1418377 BroserBros 2 263 , Saat: 15:29
Son Yorum: BroserBros
Filmin Yayınlanma Tarihi: 2002
Akıl Oyunları (A Beautiful Mind) - 2001 - TR+ORG - 720P | tt0268978 BroserBros 1 246 , Saat: 15:12
Son Yorum: BroserBros

Hızlı Menü: