Filmbol Forum Film İndir BRRip XviD v Harry Potter ve Felsefe Taşı (2001) Türkçe Dublaj Brrip Xvid İndir
Filmbol'da moderatör olmak ister misiniz? Bizimle iletişime geçmek için tıklayın!
Harry Potter ve Felsefe Taşı (2001) Türkçe Dublaj Brrip Xvid İndir
BroserBros
Harry Potter ve Felsefe Taşı (2001) Türkçe Dublaj Brrip Xvid İndir
4
2220
  • Derecelendirme: 0/5 - 0 oy
  • 1
  • 2
  • 3
  • 4
  • 5
Konuyu Okuyanlar:1 Ziyaretçi
Şuan Online!
Filmin Yayınlanma Tarihi: 2001 
Şuan Online!
BroserBros Kurucu Admin
*******
Admin

indirme türü


Bulut + Premium

Vizyon Tarihi


01 Şubat 2002

Boyutlar


1,45

diller


[TR]

altyazilar


Yok [Eklenebilir]

Video Format: Avi


Audio Video Interleave (.AVI)

Video Detay


MPEG-4, 1220 Kbps, 1,30 GB

imdb puanı


7,6 / 10,0 / 580,000

süre


152 dakika

Ses Kodek: MP3


MPEG-1 Audio Layer III (MP3)

Ses Detay


128 Kbps, 2 Kanal, 139 Mb

Editör Puanı


8,0

Genislik Yukseklik


721-299

sürüm


h263 | Brrip Xvid




Harry Potter ve Felsefe Tasi


Film Detayları

Harry Potter'ın ailesi ağır ve şaibeli bir trafik kazasında ölmüştür. Öksüz ve yetim kalan Harry'nin sığınabileceği tek yer, arasının pek de iyi olmadığı teyzesinin yanıdır. Harry, tüm hayatı boyunca idari ailesi tarafından kötü davranışlarla büyütülür. Ancak Harry Potter artık 11 yaşındadır ve Harry'nin hayalleri ve yetenekleri günden güne su yüzüne çıkmaktadır. Kısa süre sonra Hogwarts büyücülük okuluna davet edilir. Artık tek amacı, ailesinin bu şüpheli kazasını araştırmak ve muhattaplarını cezalandırmaktır.

Harry Potter ve Felsefe Taşı (Harry Potter and the Sorcerer's Stone) Filmi Imdb'den 580,000 kişi tarafından oylandı ve 7,6 puan aldı. Bu film için editör puanı 8,0 olarak belirlendi. İyi Seyirler!


Teknik Detaylar

Kod :
General
Complete name                            : Harry.Potter.ve.Felsefe.Taşı.2001.BRRip.XViD.TR.Filmbol.avi
Format                                   : AVI
Format/Info                              : Audio Video Interleave
File size                                : 1.45 GiB
Duration                                 : 2h 32mn
Overall bit rate                         : 1 361 Kbps

Video
ID                                       : 0
Format                                   : MPEG-4 Visual
Format profile                           : Simple@L1
Format settings, BVOP                    : No
Format settings, QPel                    : No
Format settings, GMC                     : No warppoints
Format settings, Matrix                  : Default (H.263)
Codec ID                                 : FMP4
Duration                                 : 2h 32mn
Bit rate                                 : 1 220 Kbps
Width                                    : 721 pixels
Height                                   : 299 pixels
Display aspect ratio                     : 2.40:1
Frame rate                               : 23.976 fps
Color space                              : YUV
Chroma subsampling                       : 4:2:0
Bit depth                                : 8 bits
Scan type                                : Progressive
Compression mode                         : Lossy
Bits/(Pixel*Frame)                       : 0.236
Stream size                              : 1.30 GiB (90%)
Writing library                          : Lavc54.92.100

Audio
ID                                       : 1
Format                                   : MPEG Audio
Format version                           : Version 1
Format profile                           : Layer 3
Mode                                     : Joint stereo
Mode extension                           : MS Stereo
Codec ID                                 : 55
Codec ID/Hint                            : MP3
Duration                                 : 2h 32mn
Bit rate mode                            : Constant
Bit rate                                 : 128 Kbps
Channel(s)                               : 2 channels
Sampling rate                            : 48.0 KHz
Compression mode                         : Lossy
Stream size                              : 139 MiB (9%)
Alignment                                : Aligned on interleaves
Interleave, duration                     : 24 ms (0.58 video frame)


Film Detayları


Harry Potter ve Felsefe Tasi

Harry Potter ve Felsefe Tasi

Harry Potter ve Felsefe Tasi


Film Fragmanı


Film Detayları

Brrip İndir


Uptobox ile indir

LetsUpload ile indir

Mega ile indir

MediaFire ile indir

Şuan Offine!
Şuan Offine!
MrGunebakan Uzman Üye
**
Uzman Üye

  • Konular0
  • Mesajlar7
  • Rep puanı 0
Harry Potter ve Felsefe Taşı
Şuan Offine!
Şuan Offine!
eseferler Uzman Üye
**
Uzman Üye

  • Konular0
  • Mesajlar6
  • Rep puanı 0
tesekkürler güzel fillm
Şuan Offine!
Şuan Offine!
5samet Yeni Üye
*
Üye

  • Konular0
  • Mesajlar1
  • Rep puanı 0
indirmeye çaışıyorum
Şuan Offine!
Şuan Offine!
irmak2626 Yeni Üye
*
Üye

  • Konular0
  • Mesajlar1
  • Rep puanı 0
Çok iyi


Konu ile Alakalı Benzer Konular
Konular Yazar Yorumlar Okunma Son Yorum
Filmin Yayınlanma Tarihi: 2020
Deathstroke Şövalyeler ve Ejderhalar (Deathstroke Knights & Dragons: The Movie) - 2020 - TR - BRRip XviD BroserBros 0 36 23-11-2020, Saat: 18:30
Son Yorum: BroserBros
Filmin Yayınlanma Tarihi: 2019
15 Dakika Savaş (L'intervention) - 2019 - TR - BRRip XviD BroserBros 0 35 23-11-2020, Saat: 17:42
Son Yorum: BroserBros
Filmin Yayınlanma Tarihi: 2020
Sürprizli Gece (The Sleepover) - 2020 - TR - BRRip XviD BroserBros 0 37 23-11-2020, Saat: 16:18
Son Yorum: BroserBros
Filmin Yayınlanma Tarihi: 2020
Feride (Feride) - 2020 - TR - BRRip XviD BroserBros 0 37 22-11-2020, Saat: 17:58
Son Yorum: BroserBros
Filmin Yayınlanma Tarihi: 2019
Gel Babacığına (Come to Daddy) - 2019 - TR - BRRip XviD BroserBros 0 32 22-11-2020, Saat: 17:43
Son Yorum: BroserBros

Hızlı Menü: