Filmbol Forum Film İndir 720P v Harry Potter ve Azbakan Tutsağı (Prisoner of Azkaban) Türkçe Dublaj m720P İndir
Filmbol'da moderatör olmak ister misiniz? Bizimle iletişime geçmek için tıklayın!
Harry Potter ve Azbakan Tutsağı (Prisoner of Azkaban) Türkçe Dublaj m720P İndir
BroserBros
Harry Potter ve Azbakan Tutsağı (Prisoner of Azkaban) Türkçe Dublaj m720P İndir
16
1605
  • Derecelendirme: 5/5 - 1 oy
  • 1
  • 2
  • 3
  • 4
  • 5
Konuyu Okuyanlar:1 Ziyaretçi
Şuan Online!
Filmin Yayınlanma Tarihi: 2004 
Şuan Online!
BroserBros Kurucu Admin
*******
Admin

indirme türü


Bulut + Premium

Vizyon Tarihi


04 Haziran 2004

Boyutlar


1,49

diller


[TR]

altyazilar


Yok [Eklenebilir]

Video Format: Mkv


Matroska (.MKV)

Video Detay


MPEG-4, 1312 Kbps, 1,30 GB

imdb puanı


7,9 / 10,0 / 500,000

süre


142 dakika

Ses Kodek: AC3


Audio Coding 3 (AC3)

Ses Detay


192 Kbps, 2 Kanal, 195Mb

Editör Puanı


8,3

Genislik Yukseklik


1280-532

sürüm


x264 | 720P




Harry Potter ve Azbakan Tutsagi


Film Detayları

Sevilen kahramanın yeni bir filmi daha. Harry Potter, akrabaları ile zor zamanlar geçirmektedir. Ailesine kötü davranan, Vernon Amca’nın kız kardeşi Marge’a büyü yapıp kaçar. Okul dışında büyü yaptığı için korksa da cezalandırılmadığını fark edince çok şaşırır. Ancak çok geçmeden, tehlikeli bir suçlu olan Lord Voldemort’un yardımcısı Sirius Black’in Azkaban hapishanesinden kaçtığını öğrenir. Dark Lord’un intikamını almak için Harry’i öldürmek istemektedir. Hapishanedeki büyük suçlulardan sorumlu, Ruh Emiciler etrafa huzursuzluk saçmaktadırlar. Öte yandan Lupin’in de sakladığı bir sır var gibi görünmektedir.
Keşfedilmeyi bekleyen çok sayıda sır, Harry’nin yeni macerasında

Harry Potter ve Azbakan Tutsağı (Harry Potter and the Prisoner of Azkaban) Filmi Imdb'den 500,000 kişi tarafından oylandı ve 7,9 puan aldı. Bu film için editör puanı 8,3 olarak belirlendi. İyi Seyirler!


Teknik Detaylar

Kod :
General
Complete name                            : Harry.Potter.ve.Azkaban.Tutsağı.2004.m720p.BLURAY.x264.TR.Filmbol.mkv
Format                                   : Matroska
Format version                           : Version 4 / Version 2
File size                                : 1.49 GiB
Duration                                 : 2h 21mn
Overall bit rate                         : 1 506 Kbps
Movie name                               : Harry Potter ve Azkaban Tuzağı (2004) - Filmbol.org
Encoded date                             : UTC 2019-09-18 15:12:52
Writing application                      : mkvmerge v35.0.0 ('All The Love In The World') 64-bit
Writing library                          : libebml v1.3.9 + libmatroska v1.5.2

Video
ID                                       : 1
Format                                   : AVC
Format/Info                              : Advanced Video Codec
Format profile                           : High@L3.1
Format settings, CABAC                   : Yes
Format settings, ReFrames                : 4 frames
Codec ID                                 : V_MPEG4/ISO/AVC
Duration                                 : 2h 21mn
Bit rate                                 : 1 312 Kbps
Width                                    : 1 280 pixels
Height                                   : 532 pixels
Display aspect ratio                     : 2.40:1
Frame rate mode                          : Constant
Frame rate                               : 23.976 (24000/1001) fps
Color space                              : YUV
Chroma subsampling                       : 4:2:0
Bit depth                                : 8 bits
Scan type                                : Progressive
Bits/(Pixel*Frame)                       : 0.080
Stream size                              : 1.30 GiB (87%)
Title                                    : 720P - Filmbol.org
Writing library                          : x264 core 130
Language                                 : English
Default                                  : Yes
Forced                                   : No

Audio
ID                                       : 2
Format                                   : AC-3
Format/Info                              : Audio Coding 3
Mode extension                           : CM (complete main)
Format settings, Endianness              : Big
Codec ID                                 : A_AC3
Duration                                 : 2h 21mn
Bit rate mode                            : Constant
Bit rate                                 : 192 Kbps
Channel(s)                               : 2 channels
Channel positions                        : Front: L R
Sampling rate                            : 48.0 KHz
Frame rate                               : 31.250 fps (1536 spf)
Compression mode                         : Lossy
Stream size                              : 195 MiB (13%)
Title                                    : Tükçe - Filmbol.org
Language                                 : Turkish
Default                                  : Yes
Forced                                   : No



Film Detayları


Harry Potter ve Azbakan Tutsagi

Harry Potter ve Azbakan Tutsagi

Harry Potter ve Azbakan Tutsagi


Film Fragmanı


Film Detayları

Mini 720P İndir


Uptobox ile indir

LetsUpload ile indir

Mega ile indir

MediaFire ile indir

Google Drive linki şuan da gizli. Kullanıma açmak için konuya yorum yapın ve ardından sayfayı yenileyin. Ayrıca bu linki açtığınızda reklamsız olarak erişebileceğinizi unutmayın.

Google Drive

Şuan Offine!
Şuan Offine!
ErtugrulAkkus Uzman Üye
**
Uzman Üye

  • Konular0
  • Mesajlar6
  • Rep puanı 0
hghgh
Şuan Offine!
Şuan Offine!
Filmhastasi Uzman Üye
**
Uzman Üye

  • Konular0
  • Mesajlar13
  • Rep puanı 0
(02-10-2019, Saat: 20:51)ErtugrulAkkus Adlı Kullanıcıdan Alıntı: hghgh
Şuan Offine!
Şuan Offine!
emre4706 Uzman Üye
**
Uzman Üye

  • Konular0
  • Mesajlar7
  • Rep puanı 0
ısdıdsıvpsıvbpı
Şuan Offine!
Şuan Offine!
GokhanB Yeni Üye
*
Üye

  • Konular0
  • Mesajlar2
  • Rep puanı 0
tesekkurler, umarım bütün seri vardır sitede,iyi aksamlar herkese
Şuan Offine!
Şuan Offine!
Gazi1258 Yeni Üye
*
Üye

  • Konular0
  • Mesajlar4
  • Rep puanı 0
..hsswu
Şuan Offine!
Şuan Offine!
uvenix Uzman Üye
**
Uzman Üye

  • Konular0
  • Mesajlar18
  • Rep puanı 0
asdasdfawd
Şuan Offine!
Şuan Offine!
aaa23 Uzman Üye
**
Uzman Üye

  • Konular0
  • Mesajlar9
  • Rep puanı 0
sagol knkaaaaa
Şuan Offine!
Şuan Offine!
SahteSehir Uzman Üye
**
Uzman Üye

  • Konular0
  • Mesajlar9
  • Rep puanı 0
fdssdf
Şuan Offine!
Şuan Offine!
evenstar Uzman Üye
**
Uzman Üye

  • Konular0
  • Mesajlar22
  • Rep puanı 0
ssssss


Konu ile Alakalı Benzer Konular
Konular Yazar Yorumlar Okunma Son Yorum
Filmin Yayınlanma Tarihi: 2016
Lanetli Mesaj (Friend Request) Türkçe Dublaj m720P İndir BroserBros 2 1,557 29-07-2020, Saat: 14:11
Son Yorum: gurcan.d
Filmin Yayınlanma Tarihi: 2019
Shazam! 6 Güç Türkçe Dublaj Bluray m720P İndir BroserBros 3 819 18-05-2020, Saat: 19:03
Son Yorum: problemboy1
Filmin Yayınlanma Tarihi: 2019
The Silence (2019) Türkçe Dublaj BLURAY m720P İndir BroserBros 5 718 12-05-2020, Saat: 21:37
Son Yorum: Nizyy
Filmin Yayınlanma Tarihi: 2019
Godzilla 2: Canavarlar Kralı (King of the Monsters) Türkçe Dublaj BLURAY m720P İndir BroserBros 12 1,316 03-05-2020, Saat: 17:05
Son Yorum: jisiso5307
Filmin Yayınlanma Tarihi: 2016
Suçlu (Criminal) Türkçe Dublaj m720P İndir BroserBros 1 1,547 12-04-2020, Saat: 19:21
Son Yorum: saeed1133

Hızlı Menü: