Filmbol Forum Film İndir 1080P v Harry Potter ve Azbakan Tutsağı (Prisoner of Azkaban) Türkçe Dublaj 1080P İndir
Filmbol'da moderatör olmak ister misiniz? Bizimle iletişime geçmek için tıklayın!
Harry Potter ve Azbakan Tutsağı (Prisoner of Azkaban) Türkçe Dublaj 1080P İndir
BroserBros
Harry Potter ve Azbakan Tutsağı (Prisoner of Azkaban) Türkçe Dublaj 1080P İndir
12
1609
  • Derecelendirme: 5/5 - 1 oy
  • 1
  • 2
  • 3
  • 4
  • 5
Konuyu Okuyanlar:1 Ziyaretçi
Şuan Online!
Filmin Yayınlanma Tarihi: 2004 
Şuan Online!
BroserBros Kurucu Admin
*******
Admin

indirme türü


Bulut + Premium

Vizyon Tarihi


04 Haziran 2004

Boyutlar


2,32

diller


[TR]

altyazilar


Yok [Eklenebilir]

Video Format: Mkv


Matroska (.MKV)

Video Detay


MPEG-4, 2155 Kbps, 2,13 GB

imdb puanı


7,9 / 10,0 / 500,000

süre


142 dakika

Ses Kodek: AC3


Audio Coding 3 (AC3)

Ses Detay


192 Kbps, 2 Kanal, 195Mb

Editör Puanı


8,3

Genislik Yukseklik


1920-798

sürüm


x264 | 1080P




Harry Potter ve Azbakan Tutsagi


Film Detayları

Sevilen kahramanın yeni bir filmi daha. Harry Potter, akrabaları ile zor zamanlar geçirmektedir. Ailesine kötü davranan, Vernon Amca’nın kız kardeşi Marge’a büyü yapıp kaçar. Okul dışında büyü yaptığı için korksa da cezalandırılmadığını fark edince çok şaşırır. Ancak çok geçmeden, tehlikeli bir suçlu olan Lord Voldemort’un yardımcısı Sirius Black’in Azkaban hapishanesinden kaçtığını öğrenir. Dark Lord’un intikamını almak için Harry’i öldürmek istemektedir. Hapishanedeki büyük suçlulardan sorumlu, Ruh Emiciler etrafa huzursuzluk saçmaktadırlar. Öte yandan Lupin’in de sakladığı bir sır var gibi görünmektedir.
Keşfedilmeyi bekleyen çok sayıda sır, Harry’nin yeni macerasında

Harry Potter ve Azbakan Tutsağı (Harry Potter and the Prisoner of Azkaban) Filmi Imdb'den 500,000 kişi tarafından oylandı ve 7,9 puan aldı. Bu film için editör puanı 8,3 olarak belirlendi. İyi Seyirler!


Teknik Detaylar

Kod :
General
Complete name                            : Harry.Potter.ve.Azkaban.Tutsağı.2004.m1080p.BLURAY.x264.TR.Filmbol.mkv
Format                                   : Matroska
Format version                           : Version 4 / Version 2
File size                                : 2.32 GiB
Duration                                 : 2h 21mn
Overall bit rate                         : 2 349 Kbps
Movie name                               : Harry Potter veAzkaban Tutsağı (2004) - Filmbol.org
Encoded date                             : UTC 2019-09-18 15:14:18
Writing application                      : mkvmerge v35.0.0 ('All The Love In The World') 64-bit
Writing library                          : libebml v1.3.9 + libmatroska v1.5.2

Video
ID                                       : 1
Format                                   : AVC
Format/Info                              : Advanced Video Codec
Format profile                           : High@L4
Format settings, CABAC                   : Yes
Format settings, ReFrames                : 4 frames
Codec ID                                 : V_MPEG4/ISO/AVC
Duration                                 : 2h 21mn
Bit rate                                 : 2 155 Kbps
Width                                    : 1 920 pixels
Height                                   : 798 pixels
Display aspect ratio                     : 2.40:1
Frame rate mode                          : Constant
Frame rate                               : 23.976 (24000/1001) fps
Color space                              : YUV
Chroma subsampling                       : 4:2:0
Bit depth                                : 8 bits
Scan type                                : Progressive
Bits/(Pixel*Frame)                       : 0.059
Stream size                              : 2.13 GiB (92%)
Title                                    : 1080P - Filmbol.org
Writing library                          : x264 core 130
Language                                 : English
Default                                  : Yes
Forced                                   : No

Audio
ID                                       : 2
Format                                   : AC-3
Format/Info                              : Audio Coding 3
Mode extension                           : CM (complete main)
Format settings, Endianness              : Big
Codec ID                                 : A_AC3
Duration                                 : 2h 21mn
Bit rate mode                            : Constant
Bit rate                                 : 192 Kbps
Channel(s)                               : 2 channels
Channel positions                        : Front: L R
Sampling rate                            : 48.0 KHz
Frame rate                               : 31.250 fps (1536 spf)
Compression mode                         : Lossy
Stream size                              : 195 MiB (8%)
Title                                    : Türkçe - Filmbol.org
Language                                 : Turkish
Default                                  : Yes
Forced                                   : No



Film Detayları


Harry Potter ve Azbakan Tutsagi

Harry Potter ve Azbakan Tutsagi

Harry Potter ve Azbakan Tutsagi


Film Fragmanı


Film Detayları

Mini 1080P İndir


Uptobox ile indir

1Fichier ile indir

1Fichier'den İndiremiyor musun? Tıklayın!


Mega ile indir

MediaFire ile indir

Şuan Offine!
Şuan Offine!
fantom1980 Uzman Üye
**
Uzman Üye

  • Konular0
  • Mesajlar19
  • Rep puanı 0
çok teşekkürler
Şuan Offine!
Şuan Offine!
AhdeM Uzman Üye
**
Uzman Üye

  • Konular0
  • Mesajlar6
  • Rep puanı 0
emeğe saglik
Şuan Offine!
Şuan Offine!
bgl_78 Yeni Üye
*
Üye

  • Konular0
  • Mesajlar4
  • Rep puanı 0
süper
Şuan Offine!
Şuan Offine!
EgoMenYT0 Uzman Üye
**
Uzman Üye

  • Konular0
  • Mesajlar6
  • Rep puanı 0
hgfhgfhgfh
Şuan Offine!
Şuan Offine!
eneskibaroglu Yeni Üye
*
Üye

  • Konular0
  • Mesajlar4
  • Rep puanı 0
Helal olsun
Şuan Offine!
Şuan Offine!
Dzone Yeni Üye
*
Üye

  • Konular0
  • Mesajlar4
  • Rep puanı 0
Harry Potter
Şuan Offine!
Şuan Offine!
Alaya_Liana Yeni Üye
*
Üye

  • Konular0
  • Mesajlar3
  • Rep puanı 0
Teşekkür ederim yüklediğiniz için
Şuan Offine!
Şuan Offine!
SahteSehir Uzman Üye
**
Uzman Üye

  • Konular0
  • Mesajlar9
  • Rep puanı 0
sdfadds
Şuan Offine!
Şuan Offine!
Forsa Uzman Üye
**
Uzman Üye

  • Konular0
  • Mesajlar7
  • Rep puanı 0
Emeğinize sağlık


Konu ile Alakalı Benzer Konular
Konular Yazar Yorumlar Okunma Son Yorum
Filmin Yayınlanma Tarihi: 2020
Deathstroke Şövalyeler ve Ejderhalar (Deathstroke Knights & Dragons: The Movie) - 2020 - TR+ORG - 1080P BroserBros 0 13 9 saat önce
Son Yorum: BroserBros
Filmin Yayınlanma Tarihi: 2019
15 Dakika Savaş (L'intervention) - 2019 - TR+ORG - 1080P BroserBros 0 14 10 saat önce
Son Yorum: BroserBros
Filmin Yayınlanma Tarihi: 2020
Sürprizli Gece (The Sleepover) - 2020 - TR+ORG - 1080P BroserBros 0 15 , Saat: 16:19
Son Yorum: BroserBros
Filmin Yayınlanma Tarihi: 2020
Feride (Feride) - 2020 - TR+ORG - 1080P BroserBros 0 43 22-11-2020, Saat: 20:24
Son Yorum: BroserBros
Filmin Yayınlanma Tarihi: 2019
Gel Babacığına (Come to Daddy) - 2019 - TR+ORG - 1080P BroserBros 0 33 22-11-2020, Saat: 17:43
Son Yorum: BroserBros

Hızlı Menü: