Filmbol Forum Film İndir BRRip XviD v Harry Potter ve Ateş Kadehi (Goblet of Fire) Türkçe Dublaj Brrip Xvid İndir
Filmbol'da moderatör olmak ister misiniz? Bizimle iletişime geçmek için tıklayın!
Harry Potter ve Ateş Kadehi (Goblet of Fire) Türkçe Dublaj Brrip Xvid İndir
BroserBros
Harry Potter ve Ateş Kadehi (Goblet of Fire) Türkçe Dublaj Brrip Xvid İndir
3
958
  • Derecelendirme: 0/5 - 0 oy
  • 1
  • 2
  • 3
  • 4
  • 5
Konuyu Okuyanlar:1 Ziyaretçi
Şuan Online!
Filmin Yayınlanma Tarihi: 2005 
Şuan Online!
BroserBros Kurucu Admin
*******
Admin

indirme türü


Bulut + Premium

Vizyon Tarihi


18 Kasım 2005

Boyutlar


1,72

diller


[TR]

altyazilar


Yok [Eklenebilir]

Video Format: Avi


Audio Video Interleave (.AVI)

Video Detay


MPEG-4, 1498 Kbps, 1,58GB

imdb puanı


7,7 / 10,0 / 500,000

süre


157 dakika

Ses Kodek: MP3


MPEG-1 Audio Layer III (MP3)

Ses Detay


128 Kbps, 2 Kanal, 138 Mb

Editör Puanı


8,0

Genislik Yukseklik


720-304

sürüm


h263 | Brrip Xvid




Harry Potter Ates Kadegi


Film Detayları

Harry’nin Hogwart’daki dördüncü yılı başlamak üzeredir. Yaz tatilinde arkadaşları ile keyifli zamanlar geçirmiştir. Bu sezonda iddialı bir ürkütücü olaylar silsilesinden geçecek olduğundan henüz haberdar değildir. Lord Voldemort ile burun buruna gelecek olması, yeni okul yılının en çarpıcı hikayesini oluşturacaktır. Quidditch Dünya Kupası finalini izleyecek ve aynı zamanda da birbirine rakip olan iki büyücülük okulunun en gözdeleri ile beraber turnuvaya gireceklerdir. Önceki bölümlerde de olduğu üzere yine heyecan dolu maceralarla karşımızda.

Harry Potter ve Ateş Kadehi (Harry Potter and the Goblet of Fire) Filmi Imdb'den 500,000 kişi tarafından oylandı ve 7,7 puan aldı. Bu film için editör puanı 8,0 olarak belirlendi. İyi Seyirler!


Teknik Detaylar

Kod :
General
Complete name                            : Harry.Potter.ve.Ateş.Kadehi.2005.BRRip.XviD.Filmbol.avi
Format                                   : AVI
Format/Info                              : Audio Video Interleave
File size                                : 1.72 GiB
Duration                                 : 2h 30mn
Overall bit rate                         : 1 639 Kbps

Video
ID                                       : 0
Format                                   : MPEG-4 Visual
Format settings, BVOP                    : No
Format settings, QPel                    : No
Format settings, GMC                     : No warppoints
Format settings, Matrix                  : Default (H.263)
Codec ID                                 : DX50
Codec ID/Hint                            : DivX 5
Duration                                 : 2h 30mn
Bit rate                                 : 1 498 Kbps
Width                                    : 720 pixels
Height                                   : 304 pixels
Display aspect ratio                     : 2.35:1
Frame rate                               : 25.000 fps
Color space                              : YUV
Chroma subsampling                       : 4:2:0
Bit depth                                : 8 bits
Scan type                                : Progressive
Compression mode                         : Lossy
Bits/(Pixel*Frame)                       : 0.274
Stream size                              : 1.58 GiB (91%)
Writing library                          : DivX 5.2.0 (UTC 2004-07-15)

Audio
ID                                       : 1
Format                                   : MPEG Audio
Format version                           : Version 1
Format profile                           : Layer 3
Mode                                     : Joint stereo
Mode extension                           : MS Stereo
Codec ID                                 : 55
Codec ID/Hint                            : MP3
Duration                                 : 1h 30mn
Source duration                          : 2h 30mn
Bit rate mode                            : Constant
Bit rate                                 : 128 Kbps
Channel(s)                               : 2 channels
Sampling rate                            : 48.0 KHz
Compression mode                         : Lossy
Stream size                              : 138 MiB (8%)
Alignment                                : Aligned on interleaves
Interleave, duration                     : 24 ms (0.60 video frame)
Writing library                          : LAME3.100



Film Detayları


Harry Potter Ates Kadehi

Harry Potter Ates Kadehi

Harry Potter Ates Kadehi


Film Fragmanı


Film Detayları

Brrip İndir


Uptobox ile indir

LetsUpload ile indir

Mega ile indir

MediaFire ile indir

Şuan Offine!
Şuan Offine!
eseferler Uzman Üye
**
Uzman Üye

  • Konular0
  • Mesajlar6
  • Rep puanı 0
tersekkürlerrrrrrr..................
Şuan Offine!
Şuan Offine!
aaa23 Uzman Üye
**
Uzman Üye

  • Konular0
  • Mesajlar9
  • Rep puanı 0
eyvallah
Şuan Offine!
Şuan Offine!
quneshlee Yeni Üye
*
Üye

  • Konular0
  • Mesajlar2
  • Rep puanı 0
güzel çalışma teşekkürler


Konu ile Alakalı Benzer Konular
Konular Yazar Yorumlar Okunma Son Yorum
Filmin Yayınlanma Tarihi: 2020
Deathstroke Şövalyeler ve Ejderhalar (Deathstroke Knights & Dragons: The Movie) - 2020 - TR - BRRip XviD BroserBros 0 35 23-11-2020, Saat: 18:30
Son Yorum: BroserBros
Filmin Yayınlanma Tarihi: 2019
15 Dakika Savaş (L'intervention) - 2019 - TR - BRRip XviD BroserBros 0 34 23-11-2020, Saat: 17:42
Son Yorum: BroserBros
Filmin Yayınlanma Tarihi: 2020
Sürprizli Gece (The Sleepover) - 2020 - TR - BRRip XviD BroserBros 0 36 23-11-2020, Saat: 16:18
Son Yorum: BroserBros
Filmin Yayınlanma Tarihi: 2020
Feride (Feride) - 2020 - TR - BRRip XviD BroserBros 0 37 22-11-2020, Saat: 17:58
Son Yorum: BroserBros
Filmin Yayınlanma Tarihi: 2019
Gel Babacığına (Come to Daddy) - 2019 - TR - BRRip XviD BroserBros 0 32 22-11-2020, Saat: 17:43
Son Yorum: BroserBros

Hızlı Menü: