Filmbol Forum Film İndir 720P v Halloween II: Katliam (Hallowwen 2) Türkçe Dublaj BLURAY 720P indir
Mega linklerinin şikayet edilmemesi için global erişime kapatıp sadece yorum yapanlara açıyoruz. Bu linkleri gizleme işlemini mecburen yapıyoruz ve yorum yapmanızın siteye değil size faydası vardır. Teşekürler yazmayı çok görüp, Random/Spam mesajlar atarak Mega linklerini açmaya çalışan kullanıcılara önce süresiz ban, devam ederse IP ban atacağız.
Filmbol'da moderatör olmak ister misiniz? Bizimle iletişime geçmek için tıklayın!
Halloween II: Katliam (Hallowwen 2) Türkçe Dublaj BLURAY 720P indir
BroserBros
Halloween II: Katliam (Hallowwen 2) Türkçe Dublaj BLURAY 720P indir
1
274
  • Derecelendirme: 0/5 - 0 oy
  • 1
  • 2
  • 3
  • 4
  • 5
Konuyu Okuyanlar:1 Ziyaretçi
Şuan Online!
Filmin Yayınlanma Tarihi: 2009 
WWW
Şuan Online!
BroserBros Kurucu Admin
*******
Admin








 Halloween II: Katliam



Michael Myers, yaşadığı ve yaşattığı travmaların izini sürmeye devam ediyor. Yıllar sonra "deliler evi"nden kaçıp Laurie'nin hayatını zehir erme girişiminin sekteye uğramasından sonra, yine ve yeniden kötülük tohumları saçmak için kasabaya geri dönüyor. Öz abisinin bitmek bilmeyen saldırılar zincirinin ardından Şerif Brackett tarafından bulunan Laurie, vakit kaybetmeden hastaneye götürülür. Aynı şekilde Michael’ın elinden kurtulmayı başaran Annie Brackett ve Dr. Loomis'in de yolları aynı mekana düşer. Michael ise, olağanüstü şartlara rağmen diğer ambulanstan kaçmayı başarır ve yarım bıraktığı işi tamamlama girişimine yeltenir. Hastanedeki Laurie ve diğerlerini bekleyen sürpriz, eli kanlı Michael'dir. Hastaneya yaptığı bu beklenmedik ziyaretinde kardeşine ulaşana kadar önüne gelen herkesi öldürmekten çekinmeyecektir. Aynı zamanda dünyaca ünlü White Zombie adlı bir heavy metal grubunun vokalisti olan Rob Zombie, 2007 yılında yeniden çevirdiği Halloween’ın devam filmiyle karşımızda. Filmin senaryosunu da yazan yönetmenin bu kez Laurie ile Michael arasındaki ilişkinin derinine indiği ve aynı psikolojik sorunların Laurie’de de olması ihtimali üzerine odaklandığı söyleniyor.

Halloween II: Katliam (2009) (Hallowwen 2) Filmi Imdb'den 50,000 kişi tarafından oylandı ve 4,9 puan aldı. Bu film için editör puanı 5,0 olarak belirlendi. İyi Seyirler!

Teknik Detaylar

Kod :
General
Unique ID                                : 267625638652549257883518948435268143318 (0xC956D2B915B6EF67B59C79C7B67308D6)
Complete name                            : /root/Desktop/4/Halloween.II.2009.720p.BRrip.x264.TR.Filmbol.mkv
Format                                   : Matroska
Format version                           : Version 4 / Version 2
File size                                : 874 MiB
Duration                                 : 1h 59mn
Overall bit rate                         : 1 027 Kbps
Movie name                               : Halloween 2 (2009) - Filmbol.org
Encoded date                             : UTC 2020-02-12 12:04:23
Writing application                      : mkvmerge v35.0.0 ('All The Love In The World') 64-bit
Writing library                          : libebml v1.3.9 + libmatroska v1.5.2

Video
ID                                       : 1
Format                                   : AVC
Format/Info                              : Advanced Video Codec
Format profile                           : [email protected]
Format settings, CABAC                   : Yes
Format settings, ReFrames                : 9 frames
Codec ID                                 : V_MPEG4/ISO/AVC
Duration                                 : 1h 59mn
Bit rate                                 : 898 Kbps
Width                                    : 1 280 pixels
Height                                   : 688 pixels
Display aspect ratio                     : 1.85:1
Frame rate mode                          : Constant
Frame rate                               : 23.976 (24000/1001) fps
Color space                              : YUV
Chroma subsampling                       : 4:2:0
Bit depth                                : 8 bits
Scan type                                : Progressive
Bits/(Pixel*Frame)                       : 0.043
Stream size                              : 763 MiB (87%)
Title                                    : 720P - Filmbol.org
Writing library                          : x264 core 125 r2200 999b753
Encoding settings                        : cabac=1 / ref=9 / deblock=1:0:0 / analyse=0x3:0x113 / me=hex / subme=7 / psy=1 / psy_rd=1.00:0.00 / mixed_ref=1 / me_range=16 / chroma_me=1 / trellis=1 / 8x8dct=1 / cqm=0 / deadzone=21,11 / fast_pskip=1 / chroma_qp_offset=-2 / threads=6 / lookahead_threads=1 / sliced_threads=0 / nr=0 / decimate=1 / interlaced=0 / bluray_compat=0 / constrained_intra=0 / bframes=8 / b_pyramid=2 / b_adapt=1 / b_bias=0 / direct=1 / weightb=1 / open_gop=0 / weightp=2 / keyint=240 / keyint_min=23 / scenecut=40 / intra_refresh=0 / rc_lookahead=40 / rc=2pass / mbtree=1 / bitrate=898 / ratetol=1.0 / qcomp=0.60 / qpmin=10 / qpmax=51 / qpstep=4 / cplxblur=20.0 / qblur=0.5 / ip_ratio=1.40 / aq=1:1.00
Default                                  : Yes
Forced                                   : No

Audio
ID                                       : 2
Format                                   : AAC
Format/Info                              : Advanced Audio Codec
Format profile                           : LC
Codec ID                                 : A_AAC
Duration                                 : 1h 59mn
Bit rate                                 : 128 Kbps
Channel(s)                               : 2 channels
Channel positions                        : Front: L R
Sampling rate                            : 44.1 KHz
Frame rate                               : 43.066 fps (1024 spf)
Compression mode                         : Lossy
Stream size                              : 109 MiB (12%)
Title                                    : Türkçe - Filmbol.org
Default                                  : Yes
Forced                                   : No

Film Detayları


 Halloween II: Katliam

 Halloween II: Katliam

 Halloween II: Katliam


Film Fragmanı


Film Detayları

Mini 720P İndir

Uptobox ile indir

1Fichier ile indir

1Fichier'den İndiremiyor musun? Tıklayın!


Mega linki şuan da gizli. Kullanıma açmak için konuya yorum yapın ve ardından sayfayı yenileyin.

Mega


MediaFire ile indir

Şuan Offine!
Şuan Offine!
draydinozkan Süper Üye
***
Super Üye

  • Konular0
  • Mesajlar57
  • Rep puanı 0
Teşekkürler.


Konu ile Alakalı Benzer Konular
Konular Yazar Yorumlar Okunma Son Yorum
Filmin Yayınlanma Tarihi: 1974
Baba 2 (The Godfather: Part II) - 1974 - TR+ORG - 720P | tt0071562 BroserBros 1 266 40 dakika önce
Son Yorum: BroserBros
Filmin Yayınlanma Tarihi: 2008
VOL-i (WALL-E) - 2008 - TR+ORG - 720P | tt0910970 BroserBros 2 334 42 dakika önce
Son Yorum: BroserBros
Filmin Yayınlanma Tarihi: 1972
Baba (The Godfather) - 1972 - TR+ORG - 720P | tt0068646 BroserBros 1 209 1 saat önce
Son Yorum: BroserBros
Filmin Yayınlanma Tarihi: 1990
Baba 3 (The Godfather: Part III) - 1990 - TR+ORG - 720P | tt0099674 BroserBros 1 269 1 saat önce
Son Yorum: BroserBros
Filmin Yayınlanma Tarihi: 1998
Armageddon (Armageddon) - 1998 - TR+ORG - 720P | tt0120591 BroserBros 1 299 3 saat önce
Son Yorum: BroserBros

Hızlı Menü: