Filmbol Forum Film İndir FHD - FULL HD v Görünmez Yaşam (A Vida Invisível) - 2019 - TR+ORG - FHD - x264
Filmbol'da moderatör olmak ister misiniz? Bizimle iletişime geçmek için tıklayın!
Görünmez Yaşam (A Vida Invisível) - 2019 - TR+ORG - FHD - x264
BroserBros
Görünmez Yaşam (A Vida Invisível) - 2019 - TR+ORG - FHD - x264
0
160
  • Derecelendirme: 0/5 - 0 oy
  • 1
  • 2
  • 3
  • 4
  • 5
Konuyu Okuyanlar:1 Ziyaretçi
Şuan Online!
Filmin Yayınlanma Tarihi: 2019 
Şuan Online!
BroserBros Kurucu Admin
*******
Admin

Vizyon Tarihi


21 Kasım 2019

imdb puanı


7,8 / 6,000

süre


139 dakika

Editör Puanı


6,5 / 10

Video Format: Mkv


Matroska (.MKV)

Ses Kodek: AC3


Audio Coding 3 (AC3)

sürüm


x264 | WEB-DL

Boyutlar


8,23 GB



 Görünmez Yaşam



A Vida Invisível, toplumun baskısı ile mücadele etmeye çalışan iki kadının hikayesini konu ediyor. Guida ve Euridice, 1950’lerde Rio de Janeiro’da yaşayan iki kız kardeştir. Guida gerçek aşkı bulma ümidiyle yaşarken, Euridice ise piyanist olmanın hayalini kurar. Farklı yönlere savrulan kardeşler, birbirlerini bulma umudunu kaybetmeden hayatın zorluklarına karşı mücadele etmek zorunda kalır.

Görünmez Yaşam (2019) (A Vida Invisível) Filmi Imdb'den 6,000 kişi tarafından oylandı ve 7,8 puan aldı. Bu film için editör puanı 6,5 olarak belirlendi. İyi Seyirler!

Teknik Detaylar

Kod :
General
Unique ID                                : 12641136379795951040947663525871749022 (0x982982499F5FA3BEF2AEA6F512E079E)
Complete name                            : /root/Desktop/1/Görünmez.Yaşam.2019.FHD.WEB-DL.x264.TR.POR.Filmbol.mkv
Format                                  : Matroska
Format version                          : Version 4 / Version 2
File size                                : 8.23 GiB
Duration                                : 2h 20mn
Overall bit rate                        : 8 408 Kbps
Movie name                              : Invisible Life - Görünmez Yaşam - 2019 | Filmbol.org
Encoded date                            : UTC 2020-11-06 12:02:43
Writing application                      : mkvmerge v8.8.0 ('Wind at my back') 64bit
Writing library                          : libebml v1.3.3 + libmatroska v1.4.4

Video
ID                                      : 1
Format                                  : AVC
Format/Info                              : Advanced Video Codec
Format profile                          : High@L4
Format settings, CABAC                  : Yes
Format settings, ReFrames                : 2 frames
Codec ID                                : V_MPEG4/ISO/AVC
Duration                                : 2h 20mn
Bit rate                                : 7 831 Kbps
Width                                    : 1 920 pixels
Height                                  : 1 080 pixels
Display aspect ratio                    : 16:9
Frame rate mode                          : Constant
Frame rate                              : 23.976 (24000/1001) fps
Color space                              : YUV
Chroma subsampling                      : 4:2:0
Bit depth                                : 8 bits
Scan type                                : Progressive
Bits/(Pixel*Frame)                      : 0.158
Stream size                              : 7.67 GiB (93%)
Title                                    : Kısaltma hikami4456@maileze.net 07.10.2020
Writing library                          : x264 core 155 r2901 7d0ff22
Language                                : Portuguese
Default                                  : Yes
Forced                                  : No
Color range                              : Limited
Color primaries                          : BT.709
Transfer characteristics                : BT.709
Matrix coefficients                      : BT.709

Audio #1
ID                                      : 2
Format                                  : AC-3
Format/Info                              : Audio Coding 3
Mode extension                          : CM (complete main)
Format settings, Endianness              : Big
Codec ID                                : A_AC3
Duration                                : 2h 20mn
Bit rate mode                            : Constant
Bit rate                                : 192 Kbps
Channel(s)                              : 2 channels
Channel positions                        : Front: L R
Sampling rate                            : 48.0 KHz
Frame rate                              : 31.250 fps (1536 spf)
Compression mode                        : Lossy
Stream size                              : 192 MiB (2%)
Title                                    : Kısaltma hikami4456@maileze.net 07.10.2020
Language                                : Turkish
Default                                  : Yes
Forced                                  : No

Audio #2
ID                                      : 3
Format                                  : AC-3
Format/Info                              : Audio Coding 3
Mode extension                          : CM (complete main)
Format settings, Endianness              : Big
Codec ID                                : A_AC3
Duration                                : 2h 20mn
Bit rate mode                            : Constant
Bit rate                                : 384 Kbps
Channel(s)                              : 6 channels
Channel positions                        : Front: L C R, Side: L R, LFE
Sampling rate                            : 48.0 KHz
Frame rate                              : 31.250 fps (1536 spf)
Compression mode                        : Lossy
Stream size                              : 385 MiB (5%)
Title                                    : Kısaltma hikami4456@maileze.net 07.10.2020
Language                                : Portuguese
Default                                  : No
Forced                                  : No

Film Detayları


 Görünmez Yaşam

 Görünmez Yaşam

 Görünmez Yaşam


Film Fragmanı


Film Detayları

Uptobox ile indir

1Fichier ile indir

1Fichier'den İndiremiyor musun? Tıklayın!


Mega ile indir

Bunun için üzgünüz ancak, bu linke sadece premium üyeler erişebilir.

Filmbol Cloud



Konu ile Alakalı Benzer Konular
Konular Yazar Yorumlar Okunma Son Yorum
Filmin Yayınlanma Tarihi: 2019
Luce (Luce) - 2019 - TR+ORG - FHD - x264 BroserBros 0 13 8 saat önce
Son Yorum: BroserBros
Filmin Yayınlanma Tarihi: 2020
Aşka İnan (I Still Believe) - 2020 - TR+ORG - FHD - x264 BroserBros 0 12 9 saat önce
Son Yorum: BroserBros
Filmin Yayınlanma Tarihi: 2018
Döndüm Ben (Yerli) - 2018 - TR+ORG - FHD - x264 BroserBros 0 34 27-11-2020, Saat: 18:41
Son Yorum: BroserBros
Filmin Yayınlanma Tarihi: 2018
Bana Bir Soygun Yaz 2 (Yerli) - 2018 - TR+ORG - FHD - x264 BroserBros 0 35 27-11-2020, Saat: 18:26
Son Yorum: BroserBros
Filmin Yayınlanma Tarihi: 2019
Hain (The Traitor / Il traditore) - 2019 - TR+ORG - FHD - x264 BroserBros 0 57 26-11-2020, Saat: 16:05
Son Yorum: BroserBros

Hızlı Menü: