Filmbol Forum Film İndir 1080P v Görünmez Yaşam (A Vida Invisível) - 2019 - TR+ORG - 1080P
Filmbol'da moderatör olmak ister misiniz? Bizimle iletişime geçmek için tıklayın!
Görünmez Yaşam (A Vida Invisível) - 2019 - TR+ORG - 1080P
BroserBros
Görünmez Yaşam (A Vida Invisível) - 2019 - TR+ORG - 1080P
0
172
  • Derecelendirme: 0/5 - 0 oy
  • 1
  • 2
  • 3
  • 4
  • 5
Konuyu Okuyanlar:1 Ziyaretçi
Şuan Online!
Filmin Yayınlanma Tarihi: 2019 
Şuan Online!
BroserBros Kurucu Admin
*******
Admin

Vizyon Tarihi


21 Kasım 2019

imdb puanı


7,8 / 6,000

süre


139 dakika

Editör Puanı


6,5 / 10

Video Format: Mkv


Matroska (.MKV)

Ses Kodek: AC3


Audio Coding 3 (AC3)

sürüm


x264 | 1080P | WEB-DL

Boyutlar


2,41 GB



 Görünmez Yaşam



A Vida Invisível, toplumun baskısı ile mücadele etmeye çalışan iki kadının hikayesini konu ediyor. Guida ve Euridice, 1950’lerde Rio de Janeiro’da yaşayan iki kız kardeştir. Guida gerçek aşkı bulma ümidiyle yaşarken, Euridice ise piyanist olmanın hayalini kurar. Farklı yönlere savrulan kardeşler, birbirlerini bulma umudunu kaybetmeden hayatın zorluklarına karşı mücadele etmek zorunda kalır.

Görünmez Yaşam (2019) (A Vida Invisível) Filmi Imdb'den 6,000 kişi tarafından oylandı ve 7,8 puan aldı. Bu film için editör puanı 6,5 olarak belirlendi. İyi Seyirler!

Teknik Detaylar

Kod :
General
Unique ID                                : 135308216240975487161965996282749781324 (0x65CB6A1F29C3A1941EA64026BEEA054C)
Complete name                            : /root/Desktop/1/Görünmez.Yaşam.2019.1080P.WEB-DL.x264.TR.POR.Filmbol.mkv
Format                                  : Matroska
Format version                          : Version 4 / Version 2
File size                                : 2.41 GiB
Duration                                : 2h 20mn
Overall bit rate                        : 2 459 Kbps
Movie name                              : Unvisible Life - Görünmez Yaşam - 2019 | Filmbol.org
Encoded date                            : UTC 2020-11-06 12:09:15
Writing application                      : mkvmerge v8.8.0 ('Wind at my back') 64bit
Writing library                          : libebml v1.3.3 + libmatroska v1.4.4

Video
ID                                      : 1
Format                                  : AVC
Format/Info                              : Advanced Video Codec
Format profile                          : Main@L4
Format settings, CABAC                  : Yes
Format settings, ReFrames                : 2 frames
Codec ID                                : V_MPEG4/ISO/AVC
Duration                                : 2h 20mn
Bit rate                                : 2 072 Kbps
Width                                    : 1 920 pixels
Height                                  : 1 080 pixels
Display aspect ratio                    : 16:9
Frame rate mode                          : Constant
Frame rate                              : 23.976 (24000/1001) fps
Color space                              : YUV
Chroma subsampling                      : 4:2:0
Bit depth                                : 8 bits
Scan type                                : Progressive
Bits/(Pixel*Frame)                      : 0.042
Stream size                              : 2.03 GiB (84%)
Title                                    : Unvisible Life - Görünmez Yaşam - 2019 | Filmbol.org
Language                                : Portuguese
Default                                  : Yes
Forced                                  : No

Audio #1
ID                                      : 2
Format                                  : AC-3
Format/Info                              : Audio Coding 3
Mode extension                          : CM (complete main)
Format settings, Endianness              : Big
Codec ID                                : A_AC3
Duration                                : 2h 20mn
Bit rate mode                            : Constant
Bit rate                                : 192 Kbps
Channel(s)                              : 2 channels
Channel positions                        : Front: L R
Sampling rate                            : 48.0 KHz
Frame rate                              : 31.250 fps (1536 spf)
Compression mode                        : Lossy
Stream size                              : 192 MiB (8%)
Title                                    : Unvisible Life - Görünmez Yaşam - 2019 | Filmbol.org
Language                                : Turkish
Default                                  : Yes
Forced                                  : No

Audio #2
ID                                      : 3
Format                                  : AC-3
Format/Info                              : Audio Coding 3
Mode extension                          : CM (complete main)
Format settings, Endianness              : Big
Codec ID                                : A_AC3
Duration                                : 2h 20mn
Bit rate mode                            : Constant
Bit rate                                : 192 Kbps
Channel(s)                              : 2 channels
Channel positions                        : Front: L R
Sampling rate                            : 48.0 KHz
Frame rate                              : 31.250 fps (1536 spf)
Compression mode                        : Lossy
Stream size                              : 193 MiB (8%)
Title                                    : Unvisible Life - Görünmez Yaşam - 2019 | Filmbol.org
Language                                : Portuguese
Default                                  : No
Forced                                  : No

Film Detayları


 Görünmez Yaşam

 Görünmez Yaşam

 Görünmez Yaşam


Film Fragmanı


Film Detayları

Uptobox ile indir

1Fichier ile indir

1Fichier'den İndiremiyor musun? Tıklayın!


Mega ile indir

Bunun için üzgünüz ancak, bu linke sadece premium üyeler erişebilir.

Filmbol Cloud



Konu ile Alakalı Benzer Konular
Konular Yazar Yorumlar Okunma Son Yorum
Filmin Yayınlanma Tarihi: 2020
Deathstroke Şövalyeler ve Ejderhalar (Deathstroke Knights & Dragons: The Movie) - 2020 - TR+ORG - 1080P BroserBros 0 18 , Saat: 18:31
Son Yorum: BroserBros
Filmin Yayınlanma Tarihi: 2019
15 Dakika Savaş (L'intervention) - 2019 - TR+ORG - 1080P BroserBros 0 19 , Saat: 17:42
Son Yorum: BroserBros
Filmin Yayınlanma Tarihi: 2020
Sürprizli Gece (The Sleepover) - 2020 - TR+ORG - 1080P BroserBros 0 20 , Saat: 16:19
Son Yorum: BroserBros
Filmin Yayınlanma Tarihi: 2020
Feride (Feride) - 2020 - TR+ORG - 1080P BroserBros 0 48 22-11-2020, Saat: 20:24
Son Yorum: BroserBros
Filmin Yayınlanma Tarihi: 2019
Gel Babacığına (Come to Daddy) - 2019 - TR+ORG - 1080P BroserBros 0 33 22-11-2020, Saat: 17:43
Son Yorum: BroserBros

Hızlı Menü: