Filmbol Forum Film İndir BRRip XviD v Görünmez Yaşam (A Vida Invisível) - 2019 - TR - BRRip XviD
Filmbol'da moderatör olmak ister misiniz? Bizimle iletişime geçmek için tıklayın!
Görünmez Yaşam (A Vida Invisível) - 2019 - TR - BRRip XviD
BroserBros
Görünmez Yaşam (A Vida Invisível) - 2019 - TR - BRRip XviD
0
175
  • Derecelendirme: 0/5 - 0 oy
  • 1
  • 2
  • 3
  • 4
  • 5
Konuyu Okuyanlar:2 Ziyaretçi
Şuan Online!
Filmin Yayınlanma Tarihi: 2019 
Şuan Online!
BroserBros Kurucu Admin
*******
Admin

Vizyon Tarihi


21 Kasım 2019

imdb puanı


7,8 / 6,000

süre


139 dakika

Editör Puanı


6,5 / 10

Video Format: Avi


Audio Video Interleave (.AVI)

Ses Kodek: MP3


MPEG-1 Audio Layer III (MP3)

sürüm


h263 | HDRip XviD

Boyutlar


1,33 GB



 Görünmez Yaşam



A Vida Invisível, toplumun baskısı ile mücadele etmeye çalışan iki kadının hikayesini konu ediyor. Guida ve Euridice, 1950’lerde Rio de Janeiro’da yaşayan iki kız kardeştir. Guida gerçek aşkı bulma ümidiyle yaşarken, Euridice ise piyanist olmanın hayalini kurar. Farklı yönlere savrulan kardeşler, birbirlerini bulma umudunu kaybetmeden hayatın zorluklarına karşı mücadele etmek zorunda kalır.

Görünmez Yaşam (2019) (A Vida Invisível) Filmi Imdb'den 6,000 kişi tarafından oylandı ve 7,8 puan aldı. Bu film için editör puanı 6,5 olarak belirlendi. İyi Seyirler!

Teknik Detaylar

Kod :
General
Complete name                            : /root/Desktop/1/Görünmez.Yaşam.2019.HDRip.XViD.TR.Filmbol.avi
Format                                  : AVI
Format/Info                              : Audio Video Interleave
File size                                : 1.33 GiB
Duration                                : 2h 20mn
Overall bit rate                        : 1 355 Kbps

Video
ID                                      : 0
Format                                  : MPEG-4 Visual
Format profile                          : Advanced Simple@L5
Format settings, BVOP                    : 2
Format settings, QPel                    : No
Format settings, GMC                    : No warppoints
Format settings, Matrix                  : Default (MPEG)
Codec ID                                : XVID
Codec ID/Hint                            : XviD
Duration                                : 2h 20mn
Bit rate                                : 1 214 Kbps
Width                                    : 720 pixels
Height                                  : 404 pixels
Display aspect ratio                    : 16:9
Frame rate                              : 23.976 (23976/1000) fps
Color space                              : YUV
Chroma subsampling                      : 4:2:0
Bit depth                                : 8 bits
Scan type                                : Progressive
Compression mode                        : Lossy
Bits/(Pixel*Frame)                      : 0.174
Stream size                              : 1.19 GiB (90%)
Writing library                          : XviD 64

Audio
ID                                      : 1
Format                                  : MPEG Audio
Format version                          : Version 1
Format profile                          : Layer 3
Mode                                    : Joint stereo
Mode extension                          : MS Stereo
Codec ID                                : 55
Codec ID/Hint                            : MP3
Duration                                : 2h 20mn
Bit rate mode                            : Constant
Bit rate                                : 128 Kbps
Channel(s)                              : 2 channels
Sampling rate                            : 48.0 KHz
Compression mode                        : Lossy
Stream size                              : 128 MiB (9%)
Alignment                                : Aligned on interleaves
Interleave, duration                    : 24 ms (0.58 video frame)

Film Detayları


 Görünmez Yaşam

 Görünmez Yaşam

 Görünmez Yaşam


Film Fragmanı


Film Detayları


Uptobox ile indir

1Fichier ile indir

1Fichier'den İndiremiyor musun? Tıklayın!


Mega ile indir

Bunun için üzgünüz ancak, bu linke sadece premium üyeler erişebilir.

Filmbol Cloud



Konu ile Alakalı Benzer Konular
Konular Yazar Yorumlar Okunma Son Yorum
Filmin Yayınlanma Tarihi: 2020
Deathstroke Şövalyeler ve Ejderhalar (Deathstroke Knights & Dragons: The Movie) - 2020 - TR - BRRip XviD BroserBros 0 44 23-11-2020, Saat: 18:30
Son Yorum: BroserBros
Filmin Yayınlanma Tarihi: 2019
15 Dakika Savaş (L'intervention) - 2019 - TR - BRRip XviD BroserBros 0 45 23-11-2020, Saat: 17:42
Son Yorum: BroserBros
Filmin Yayınlanma Tarihi: 2020
Sürprizli Gece (The Sleepover) - 2020 - TR - BRRip XviD BroserBros 0 46 23-11-2020, Saat: 16:18
Son Yorum: BroserBros
Filmin Yayınlanma Tarihi: 2020
Feride (Feride) - 2020 - TR - BRRip XviD BroserBros 0 39 22-11-2020, Saat: 17:58
Son Yorum: BroserBros
Filmin Yayınlanma Tarihi: 2019
Gel Babacığına (Come to Daddy) - 2019 - TR - BRRip XviD BroserBros 0 35 22-11-2020, Saat: 17:43
Son Yorum: BroserBros

Hızlı Menü: