Filmbol Forum Film İndir 720P v Gölge Savaşçı (Shadow - Ying) - 2018 - TR+ORG - 720P
Moderatör Alımları Başladı! Başvuru yapmak için tıklayın.
Filmbol Premium'da %50'e varan indirim fırsatı!
Gölge Savaşçı (Shadow - Ying) - 2018 - TR+ORG - 720P
BroserBros
Gölge Savaşçı (Shadow - Ying) - 2018 - TR+ORG - 720P
0
80
  • Derecelendirme: 0/5 - 0 oy
  • 1
  • 2
  • 3
  • 4
  • 5
Konuyu Okuyanlar:1 Ziyaretçi
Şuan Online!
Filmin Yayınlanma Tarihi: 2018 
Şuan Online!
BroserBros Kurucu Admin
*******
Admin

Vizyon Tarihi


10 Mayıs 2019

imdb puanı


7,0 / 12,000

süre


116 dakika

Editör Puanı


6,6 / 10

Video Format: Mkv


Matroska (.MKV)

Ses Kodek: AC3


Audio Coding 3 (AC3)

sürüm


x264 | 720P | BluRay

Boyutlar


1,16 GB



 Gölge Savaşçı



Kumandan büyük bir zafer için hazırlıklara başlamıştı, bu savaşı kazanması imkansız olarak görülmekte olsa da onun gizli silahı olan gölge oyuna katıldığında imkansız olan şey mümkün olmak üzeredir ve kumandan hayallerini kurduğu diğer krallığı ele geçirme planları işlemekteydi...

Gölge Savaşçı (2018) (Shadow - Ying) Filmi Imdb'den 12,000 kişi tarafından oylandı ve 7,0 puan aldı. Bu film için editör puanı 6,6 olarak belirlendi. İyi Seyirler!

Teknik Detaylar

Kod :
General
Unique ID                                : 203291860404220057040172747139839630171 (0x98F096905C4F56CBA3BD4F0DF75B1B5B)
Complete name                            : /root/Desktop/5/Gölge.Savaşçı.2018.720p.BluRay.x264.TR.CH.Filmbol.mkv
Format                                  : Matroska
Format version                          : Version 4 / Version 2
File size                                : 1.16 GiB
Duration                                : 1h 55mn
Overall bit rate                        : 1 436 Kbps
Movie name                              : Shadow - Gölge Savaşçısı - 2018 | Filmbol.org
Encoded date                            : UTC 2020-07-25 08:39:19
Writing application                      : mkvmerge v8.8.0 ('Wind at my back') 64bit
Writing library                          : libebml v1.3.3 + libmatroska v1.4.4

Video
ID                                      : 1
Format                                  : AVC
Format/Info                              : Advanced Video Codec
Format profile                          : High@L4.1
Format settings, CABAC                  : Yes
Format settings, ReFrames                : 4 frames
Codec ID                                : V_MPEG4/ISO/AVC
Duration                                : 1h 55mn
Bit rate                                : 1 050 Kbps
Width                                    : 1 280 pixels
Height                                  : 534 pixels
Display aspect ratio                    : 2.40:1
Original display aspect ratio            : 2.40:1
Frame rate mode                          : Constant
Frame rate                              : 24.000 fps
Color space                              : YUV
Chroma subsampling                      : 4:2:0
Bit depth                                : 8 bits
Scan type                                : Progressive
Bits/(Pixel*Frame)                      : 0.064
Stream size                              : 871 MiB (73%)
Title                                    : Filmbol.org
Writing library                          : x264 core 152
Encoding settings                        : cabac=1 / ref=4 / deblock=1:-1:-1 / analyse=0x3:0x133 / me=umh / subme=9 / psy=1 / psy_rd=1.00:0.15 / mixed_ref=1 / me_range=24 / chroma_me=1 / trellis=2 / 8x8dct=1 / cqm=0 / deadzone=21,11 / fast_pskip=0 / chroma_qp_offset=-3 / threads=12 / lookahead_threads=1 / sliced_threads=0 / nr=0 / decimate=1 / interlaced=0 / bluray_compat=0 / constrained_intra=0 / bframes=3 / b_pyramid=2 / b_adapt=2 / b_bias=0 / direct=3 / weightb=1 / open_gop=0 / weightp=2 / keyint=250 / keyint_min=23 / scenecut=40 / intra_refresh=0 / rc_lookahead=60 / rc=2pass / mbtree=1 / bitrate=1050 / ratetol=1.0 / qcomp=0.60 / qpmin=0 / qpmax=69 / qpstep=4 / cplxblur=20.0 / qblur=0.5 / vbv_maxrate=31250 / vbv_bufsize=31250 / nal_hrd=none / filler=0 / ip_ratio=1.40 / aq=1:1.00
Default                                  : Yes
Forced                                  : No

Audio #1
ID                                      : 2
Format                                  : AC-3
Format/Info                              : Audio Coding 3
Mode extension                          : CM (complete main)
Format settings, Endianness              : Big
Codec ID                                : A_AC3
Duration                                : 1h 55mn
Bit rate mode                            : Constant
Bit rate                                : 192 Kbps
Channel(s)                              : 2 channels
Channel positions                        : Front: L R
Sampling rate                            : 48.0 KHz
Frame rate                              : 31.250 fps (1536 spf)
Compression mode                        : Lossy
Stream size                              : 159 MiB (13%)
Title                                    : Filmbol.org
Language                                : Turkish
Default                                  : Yes
Forced                                  : No

Audio #2
ID                                      : 3
Format                                  : AC-3
Format/Info                              : Audio Coding 3
Mode extension                          : CM (complete main)
Format settings, Endianness              : Big
Codec ID                                : A_AC3
Duration                                : 1h 55mn
Bit rate mode                            : Constant
Bit rate                                : 192 Kbps
Channel(s)                              : 2 channels
Channel positions                        : Front: L R
Sampling rate                            : 48.0 KHz
Frame rate                              : 31.250 fps (1536 spf)
Compression mode                        : Lossy
Stream size                              : 159 MiB (13%)
Title                                    : Filmbol.org
Language                                : Chinese
Default                                  : No
Forced                                  : No

Text
ID                                      : 4
Format                                  : UTF-8
Codec ID                                : S_TEXT/UTF8
Codec ID/Info                            : UTF-8 Plain Text
Duration                                : 1h 46mn
Bit rate                                : 33 bps
Count of elements                        : 1060
Stream size                              : 26.1 KiB (0%)
Title                                    : Filmbol.org
Language                                : Turkish
Default                                  : No
Forced                                  : No

Film Detayları


 Gölge Savaşçı

 Gölge Savaşçı

 Gölge Savaşçı


Film Fragmanı


Film Detayları

Uptobox ile indir

1Fichier ile indir

1Fichier'den İndiremiyor musun? Tıklayın!


Mega ile indir

Bunun için üzgünüz ancak, bu linke sadece premium üyeler erişebilir.

Filmbol Cloud



Konu ile Alakalı Benzer Konular
Konular Yazar Yorumlar Okunma Son Yorum
Filmin Yayınlanma Tarihi: 2020
Vahşetin Çağrısı (The Call of the Wild) - 2020 - TR+ORG - 720P BroserBros 0 24 , Saat: 20:46
Son Yorum: BroserBros
Filmin Yayınlanma Tarihi: 2019
The Gentlemen (The Gentlemen) - 2019 - TR+ORG - 720P BroserBros 0 21 , Saat: 20:33
Son Yorum: BroserBros
Filmin Yayınlanma Tarihi: 2019
Sokak Dansı: Çin (Step Up China) - 2019 - TR+ORG - 720P BroserBros 0 21 , Saat: 20:07
Son Yorum: BroserBros
Filmin Yayınlanma Tarihi: 2019
Saklı Gerçekler (The Truth - La vérité) - 2019 - TR+ORG - 720P BroserBros 0 96 26-07-2020, Saat: 13:10
Son Yorum: BroserBros
Filmin Yayınlanma Tarihi: 2019
Savunma Sanatı (The Art of Self-Defense) - 2019 - TR+ORG - 720P BroserBros 0 86 26-07-2020, Saat: 12:35
Son Yorum: BroserBros

Hızlı Menü: