Filmbol Forum Film İndir BRRip XviD v Gölge Savaşçı (Shadow - Ying) - 2018 - TR - BRRip XviD
Moderatör Alımları Başladı! Başvuru yapmak için tıklayın.
Filmbol Premium'da %50'e varan indirim fırsatı!
Gölge Savaşçı (Shadow - Ying) - 2018 - TR - BRRip XviD
BroserBros
Gölge Savaşçı (Shadow - Ying) - 2018 - TR - BRRip XviD
0
103
  • Derecelendirme: 0/5 - 0 oy
  • 1
  • 2
  • 3
  • 4
  • 5
Konuyu Okuyanlar:1 Ziyaretçi
Şuan Online!
Filmin Yayınlanma Tarihi: 2018 
Şuan Online!
BroserBros Kurucu Admin
*******
Admin

Vizyon Tarihi


10 Mayıs 2019

imdb puanı


7,0 / 12,000

süre


116 dakika

Editör Puanı


6,6 / 10

Video Format: Avi


Audio Video Interleave (.AVI)

Ses Kodek: MP3


MPEG-1 Audio Layer III (MP3)

sürüm


h263 | BDRip XviD

Boyutlar


1,20 GB



 Gölge Savaşçı



Kumandan büyük bir zafer için hazırlıklara başlamıştı, bu savaşı kazanması imkansız olarak görülmekte olsa da onun gizli silahı olan gölge oyuna katıldığında imkansız olan şey mümkün olmak üzeredir ve kumandan hayallerini kurduğu diğer krallığı ele geçirme planları işlemekteydi...

Gölge Savaşçı (2018) (Shadow - Ying) Filmi Imdb'den 12,000 kişi tarafından oylandı ve 7,0 puan aldı. Bu film için editör puanı 6,6 olarak belirlendi. İyi Seyirler!

Teknik Detaylar

Kod :
General
Complete name                            : /root/Desktop/5/Gölge.Savaşçı.2018.BDRip.XViD.TR.Filmbol.avi
Format                                  : AVI
Format/Info                              : Audio Video Interleave
File size                                : 1.20 GiB
Duration                                : 1h 55mn
Overall bit rate                        : 1 490 Kbps

Video
ID                                      : 0
Format                                  : MPEG-4 Visual
Format profile                          : Advanced Simple@L5
Format settings, BVOP                    : 1
Format settings, QPel                    : No
Format settings, GMC                    : No warppoints
Format settings, Matrix                  : Custom
Codec ID                                : XVID
Codec ID/Hint                            : XviD
Duration                                : 1h 55mn
Bit rate                                : 1 349 Kbps
Width                                    : 720 pixels
Height                                  : 304 pixels
Display aspect ratio                    : 2.35:1
Frame rate                              : 24.000 fps
Color space                              : YUV
Chroma subsampling                      : 4:2:0
Bit depth                                : 8 bits
Scan type                                : Progressive
Compression mode                        : Lossy
Bits/(Pixel*Frame)                      : 0.257
Stream size                              : 1.09 GiB (91%)
Writing library                          : XviD 73

Audio
ID                                      : 1
Format                                  : MPEG Audio
Format version                          : Version 1
Format profile                          : Layer 3
Mode                                    : Joint stereo
Mode extension                          : MS Stereo
Codec ID                                : 55
Codec ID/Hint                            : MP3
Duration                                : 1h 55mn
Bit rate mode                            : Constant
Bit rate                                : 128 Kbps
Channel(s)                              : 2 channels
Sampling rate                            : 48.0 KHz
Compression mode                        : Lossy
Stream size                              : 106 MiB (9%)
Alignment                                : Aligned on interleaves
Interleave, duration                    : 24 ms (0.58 video frame)
Writing library                          : LAME3.99.5

Film Detayları


 Gölge Savaşçı

 Gölge Savaşçı

 Gölge Savaşçı


Film Fragmanı


Film Detayları


Uptobox ile indir

1Fichier ile indir

1Fichier'den İndiremiyor musun? Tıklayın!


Mega ile indir

Bunun için üzgünüz ancak, bu linke sadece premium üyeler erişebilir.

Filmbol Cloud



Konu ile Alakalı Benzer Konular
Konular Yazar Yorumlar Okunma Son Yorum
Filmin Yayınlanma Tarihi: 2010
Toprak Altında (Buried) - 2010 - TR - BRRip XviD BroserBros 1 90 , Saat: 04:18
Son Yorum: sectechno
Filmin Yayınlanma Tarihi: 2020
Vahşetin Çağrısı (The Call of the Wild) - 2020 - TR - BRRip XviD BroserBros 0 27 , Saat: 20:46
Son Yorum: BroserBros
Filmin Yayınlanma Tarihi: 2019
The Gentlemen (The Gentlemen) - 2019 - TR - BRRip XviD BroserBros 0 28 , Saat: 20:33
Son Yorum: BroserBros
Filmin Yayınlanma Tarihi: 2019
Sokak Dansı: Çin (Step Up China) - 2019 - TR - BRRip XviD BroserBros 0 28 , Saat: 20:06
Son Yorum: BroserBros
Filmin Yayınlanma Tarihi: 2019
Saklı Gerçekler (The Truth - La vérité) - 2019 - TR - BRRip XviD BroserBros 0 108 26-07-2020, Saat: 13:10
Son Yorum: BroserBros

Hızlı Menü: