Filmbol Forum Film İndir BRRip XviD v Godzilla 2: Canavarlar Kralı (King of the Monsters) Türkçe Dublaj Brrip Xvid İndir
Filmbol'da moderatör olmak ister misiniz? Bizimle iletişime geçmek için tıklayın!
Godzilla 2: Canavarlar Kralı (King of the Monsters) Türkçe Dublaj Brrip Xvid İndir
BroserBros
Godzilla 2: Canavarlar Kralı (King of the Monsters) Türkçe Dublaj Brrip Xvid İndir
7
849
  • Derecelendirme: 0/5 - 0 oy
  • 1
  • 2
  • 3
  • 4
  • 5
Konuyu Okuyanlar:1 Ziyaretçi
Şuan Online!
Filmin Yayınlanma Tarihi: 2019 
Şuan Online!
BroserBros Kurucu Admin
*******
Admin

indirme türü


Bulut + Premium

Vizyon Tarihi


31 Mayıs 2019

Boyutlar


1,23

diller


[TR]

altyazilar


KISIM [Eklenebilir]

Video Format: Avi


Audio Video Interleave (.AVI)

Video Detay


MPEG-4, 1203 Kbps, 1,11 GB

imdb puanı


6,2 / 10,0 / 77,000

süre


132 dakika

Ses Kodek: MP3


MPEG-1 Audio Layer III (MP3)

Ses Detay


128 Kbps, 2 Kanal, 121 Mb

Editör Puanı


7,0

Genislik Yukseklik


720-304

sürüm


h263 | Brrip Xvid




Godzilla 2


Film Detayları

Godzilla II: Canavarlar Kralı, Godzilla'nın Mothra, Rodan ve ezeli düşmanı olan üç başlı King Ghidorah ile çatışması ve bu esnada insanlığın var oluşunun dengesini bozmasını konu ediyor. Mothra, Rodan ve ezeli düşmanı olan üç başlı Kral Ghidorah ile çatışan tehlikeli Godzilla da bu devasa boyutlardaki güçlü canavarların arasında yer alır. Bu efsane oldukları sanılan antik süper türler tekrar yükselip de karşı karşıya geldiğinde hepsi üstünlük için mücadeleye girişir. Bu tehlikeli mücadele sırasında insanlığın var oluşunun dengesi de pamuk ipliğine bağlı bir hale gelir. Bu savaşta kimin kazanacağı, insanlığın kaderini olduğu kadar gezegenin baskın türünün kim olacağını da kanıtlayacak hale gelir. 
2014 yapımı Godzilla'nın devam filmi niteliğinde olan “Godzilla: King of Monsters”in yönetmen koltuğunda Michael Dougherty oturuyor.
 
Godzilla 2: Canavarlar Kralı (Godzilla: King of the Monsters) Filmi Imdb'den 77,000 kişi tarafından oylandı ve 6,2 puan aldı. Bu film için editör puanı 7,0 olarak belirlendi. İyi Seyirler!


Teknik Detaylar


Kod :
General
Complete name                            : Godzilla.Canavarlar.Kralı.2019.BRRip.XViD.TR.Filmbol.avi
Format                                   : AVI
Format/Info                              : Audio Video Interleave
File size                                : 1.24 GiB
Duration                                 : 2h 11mn
Overall bit rate                         : 1 344 Kbps

Video
ID                                       : 0
Format                                   : MPEG-4 Visual
Format profile                           : Advanced Simple@L5
Format settings, BVOP                    : 2
Format settings, QPel                    : No
Format settings, GMC                     : No warppoints
Format settings, Matrix                  : Default (H.263)
Codec ID                                 : XVID
Codec ID/Hint                            : XviD
Duration                                 : 2h 11mn
Bit rate                                 : 1 203 Kbps
Width                                    : 720 pixels
Height                                   : 304 pixels
Display aspect ratio                     : 2.35:1
Frame rate                               : 23.976 (24000/1001) fps
Color space                              : YUV
Chroma subsampling                       : 4:2:0
Bit depth                                : 8 bits
Scan type                                : Progressive
Compression mode                         : Lossy
Bits/(Pixel*Frame)                       : 0.229
Stream size                              : 1.11 GiB (90%)
Writing library                          : XviD 67

Audio
ID                                       : 1
Format                                   : MPEG Audio
Format version                           : Version 1
Format profile                           : Layer 3
Codec ID                                 : 55
Codec ID/Hint                            : MP3
Duration                                 : 2h 11mn
Bit rate mode                            : Constant
Bit rate                                 : 128 Kbps
Channel(s)                               : 2 channels
Sampling rate                            : 48.0 KHz
Compression mode                         : Lossy
Stream size                              : 121 MiB (10%)
Alignment                                : Aligned on interleaves
Interleave, duration                     : 24 ms (0.58 video frame)


Film Detayları


Godzilla 2


Film Fragmanı


Film Detayları

Brrip İndir


Uptobox ile indir

LetsUpload ile indir


Mega ile indir

nqLY

MediaFire ile indir

Şuan Offine!
Şuan Offine!
aktuel32 Yeni Üye
*
Üye

  • Konular0
  • Mesajlar1
  • Rep puanı 0
ÇOCUKLUĞUMUZUN EFSANESİ...
Şuan Offine!
Şuan Offine!
emill Yeni Üye
*
Üye

  • Konular0
  • Mesajlar2
  • Rep puanı 0
.....
Şuan Offine!
Şuan Offine!
halitcanakceviz Yeni Üye
*
Üye

  • Konular0
  • Mesajlar1
  • Rep puanı 0
Teşekkürler
Şuan Offine!
Şuan Offine!
lolkek Yeni Üye
*
Üye

  • Konular0
  • Mesajlar4
  • Rep puanı 0
HARİKA
Şuan Offine!
Şuan Offine!
edizshady Uzman Üye
**
Uzman Üye

  • Konular0
  • Mesajlar11
  • Rep puanı 0
umarım güzeldir
Şuan Offine!
Şuan Offine!
Ali.ozdemir.46 Yeni Üye
*
Üye

  • Konular0
  • Mesajlar5
  • Rep puanı 0
niceeeee
Şuan Offine!
Şuan Offine!
hayri40 Uzman Üye
**
Uzman Üye

  • Konular0
  • Mesajlar19
  • Rep puanı 0
Emeğinize sağlık


Konu ile Alakalı Benzer Konular
Konular Yazar Yorumlar Okunma Son Yorum
Filmin Yayınlanma Tarihi: 2019
Luce (Luce) - 2019 - TR - BRRip XviD BroserBros 0 16 9 saat önce
Son Yorum: BroserBros
Filmin Yayınlanma Tarihi: 2020
Aşka İnan (I Still Believe) - 2020 - TR - BRRip XviD BroserBros 0 15 10 saat önce
Son Yorum: BroserBros
Filmin Yayınlanma Tarihi: 2018
Döndüm Ben (Yerli) - 2018 - TR - BRRip XviD BroserBros 0 36 27-11-2020, Saat: 18:40
Son Yorum: BroserBros
Filmin Yayınlanma Tarihi: 2018
Bana Bir Soygun Yaz 2 (Yerli) - 2018 - TR - BRRip XviD BroserBros 0 27 27-11-2020, Saat: 18:26
Son Yorum: BroserBros
Filmin Yayınlanma Tarihi: 2007
Amerikan Pastası 6: Beta Evi (American Pie: Beta House) - 2007 - TR - BRRip XviD BroserBros 2 247 27-11-2020, Saat: 14:31
Son Yorum: tayyib5731

Hızlı Menü: