Filmbol Forum Film İndir 3D v Godzilla 2: Canavarlar Kralı (King of the Monsters) Türkçe Dublaj BLURAY m3D İndir
Mega linklerinin şikayet edilmemesi için global erişime kapatıp sadece yorum yapanlara açıyoruz. Bu linkleri gizleme işlemini mecburen yapıyoruz ve yorum yapmanızın siteye değil size faydası vardır. Teşekürler yazmayı çok görüp, Random/Spam mesajlar atarak Mega linklerini açmaya çalışan kullanıcılara önce süresiz ban, devam ederse IP ban atacağız.
Filmbol'da moderatör olmak ister misiniz? Bizimle iletişime geçmek için tıklayın!
Godzilla 2: Canavarlar Kralı (King of the Monsters) Türkçe Dublaj BLURAY m3D İndir
BroserBros
Godzilla 2: Canavarlar Kralı (King of the Monsters) Türkçe Dublaj BLURAY m3D İndir
13
1598
  • Derecelendirme: 0/5 - 0 oy
  • 1
  • 2
  • 3
  • 4
  • 5
Konuyu Okuyanlar:2 Ziyaretçi
Şuan Online!
Filmin Yayınlanma Tarihi: 2019 
WWW
Şuan Online!
BroserBros Kurucu Admin
*******
Admin





Ses Kodek: AC3


Audio Coding 3 (AC3)






Godzilla 2



Teknik Detaylar


Kod :
General
Complete name                            : Godzilla.Canavarlar.Kralı.2019.BLURAY.m3D.x264.TR.Filmbol.mkv
Format                                   : Matroska
Format version                           : Version 4 / Version 2
File size                                : 2.29 GiB
Duration                                 : 2h 11mn
Overall bit rate                         : 2 485 Kbps
Movie name                               : Godzilla Canavarlar Kralı (2019) - Filmbol.org
Encoded date                             : UTC 2019-09-01 08:58:47
Writing application                      : mkvmerge v35.0.0 ('All The Love In The World') 64-bit
Writing library                          : libebml v1.3.9 + libmatroska v1.5.2

Video
ID                                       : 1
Format                                   : AVC
Format/Info                              : Advanced Video Codec
Format profile                           : [email protected]
Format settings, CABAC                   : Yes
Format settings, ReFrames                : 4 frames
Codec ID                                 : V_MPEG4/ISO/AVC
Duration                                 : 2h 11mn
Bit rate                                 : 2 100 Kbps
Width                                    : 1 920 pixels
Height                                   : 800 pixels
Display aspect ratio                     : 2.40:1
Frame rate mode                          : Constant
Frame rate                               : 23.976 (24000/1001) fps
Color space                              : YUV
Chroma subsampling                       : 4:2:0
Bit depth                                : 8 bits
Scan type                                : Progressive
Bits/(Pixel*Frame)                       : 0.057
Stream size                              : 1.93 GiB (84%)
Title                                    : m3D - Filmbol.org
Writing library                          : x264 core 152
Default                                  : Yes
Forced                                   : No

Audio
ID                                       : 2
Format                                   : AC-3
Format/Info                              : Audio Coding 3
Mode extension                           : CM (complete main)
Format settings, Endianness              : Big
Codec ID                                 : A_AC3
Duration                                 : 2h 11mn
Bit rate mode                            : Constant
Bit rate                                 : 384 Kbps
Channel(s)                               : 6 channels
Channel positions                        : Front: L C R, Side: L R, LFE
Sampling rate                            : 48.0 KHz
Frame rate                               : 31.250 fps (1536 spf)
Compression mode                         : Lossy
Delay relative to video                  : 1s 0ms
Stream size                              : 362 MiB (15%)
Title                                    : Türkçe - Filmbol.org
Language                                 : Turkish
Default                                  : Yes
Forced                                   : No

Text
ID                                       : 3
Format                                   : UTF-8
Codec ID                                 : S_TEXT/UTF8
Codec ID/Info                            : UTF-8 Plain Text
Duration                                 : 2h 8mn
Bit rate                                 : 1 bps
Count of elements                        : 39
Stream size                              : 1.39 KiB (0%)
Title                                    : KISIM
Default                                  : Yes
Forced                                   : No


Film Detayları



Film Fragmanı


Film Detayları

Mini 3D İndir


Uptobox ile indir


Mega linki şuan da gizli. Kullanıma açmak için konuya yorum yapın ve ardından sayfayı yenileyin.

Mega


f2ue

MediaFire ile indir

Şuan Offine!
Şuan Offine!
gmazi658 Süper Üye
***
Super Üye

  • Konular0
  • Mesajlar25
  • Rep puanı 0
teşekkür
Şuan Offine!
Şuan Offine!
Dw4lLers Uzman Üye
**
Uzman Üye

  • Konular0
  • Mesajlar6
  • Rep puanı 0
efsaneee
Şuan Offine!
Şuan Offine!
mert06 Yeni Üye
*
Üye

  • Konular0
  • Mesajlar2
  • Rep puanı 0
TSKLER
Şuan Offine!
Şuan Offine!
edizshady Uzman Üye
**
Uzman Üye

  • Konular0
  • Mesajlar11
  • Rep puanı 0
efsaneee
Şuan Offine!
Şuan Offine!
Rustu_1905 Uzman Üye
**
Uzman Üye

  • Konular0
  • Mesajlar14
  • Rep puanı 0
çok iyi
Şuan Offine!
Şuan Offine!
ruzgar787878 Süper Üye
***
Super Üye

  • Konular0
  • Mesajlar26
  • Rep puanı 0
thank
Şuan Offine!
Şuan Offine!
schoby Yeni Üye
*
Üye

  • Konular0
  • Mesajlar2
  • Rep puanı 0
Süper
Şuan Offine!
Şuan Offine!
salih KETEK Yeni Üye
*
Üye

  • Konular0
  • Mesajlar1
  • Rep puanı 0
teşekkür
Şuan Offine!
Şuan Offine!
Amireal Yeni Üye
*
Üye

  • Konular0
  • Mesajlar2
  • Rep puanı 0
Güzel


Konu ile Alakalı Benzer Konular
Konular Yazar Yorumlar Okunma Son Yorum
Filmin Yayınlanma Tarihi: 2012
Buz Devri 4: Kıtalar Ayrılıyor (Ice Age: Continental Drift) Türkçe Dublaj BLURAY 3D BroserBros 4 370 04-03-2021, Saat: 13:13
Son Yorum: eminnn
Filmin Yayınlanma Tarihi: 2017
Galaksinin Koruyucuları 2 (Guardians of the Galaxy 2) Türkçe Dublaj BLURAY 3D İndir BroserBros 1 364 23-02-2021, Saat: 16:32
Son Yorum: Kingstone
Filmin Yayınlanma Tarihi: 2012
Pi'nin Yaşamı (Life of Pi) Türkçe Dublaj BLURAY 3D indir BroserBros 1 517 23-02-2021, Saat: 16:31
Son Yorum: Kingstone
Filmin Yayınlanma Tarihi: 2014
Galaksinin Koruyucuları (Guardians of the Galaxy) Türkçe Dublaj BLURAY 3D indir BroserBros 2 396 23-02-2021, Saat: 16:25
Son Yorum: Kingstone
Filmin Yayınlanma Tarihi: 2018
Karınca-Adam ve Eşek Arısı (Ant-Man and Wasp) Türkçe Dublaj BLURAY 3D İndir BroserBros 4 782 22-02-2021, Saat: 23:44
Son Yorum: Kingstone

Hızlı Menü: