Filmbol Forum Film İndir BRRip XviD v Gloria Bell (2018) Türkçe Dublaj Brrip Xvid İndir
Filmbol'da moderatör olmak ister misiniz? Bizimle iletişime geçmek için tıklayın!
Gloria Bell (2018) Türkçe Dublaj Brrip Xvid İndir
BroserBros
Gloria Bell (2018) Türkçe Dublaj Brrip Xvid İndir
0
282
  • Derecelendirme: 0/5 - 0 oy
  • 1
  • 2
  • 3
  • 4
  • 5
Konuyu Okuyanlar:1 Ziyaretçi
Şuan Online!
Filmin Yayınlanma Tarihi: 2018 
Şuan Online!
BroserBros Kurucu Admin
*******
Admin

indirme türü


Bulut + Premium

Vizyon Tarihi


19 Haziran 2019

Boyutlar


0,85

diller


[TR]

altyazilar


Yok [Eklenebilir]

Video Format: Avi


Audio Video Interleave (.AVI)

Video Detay


MPEG-4, 1030Kbps, 0,74GB

imdb puanı


6,3 / 10,0 / 7,000

süre


102 dakika

Ses Kodek: MP3


MPEG-1 Audio Layer III (MP3)

Ses Detay


128 Kbps, 2 Kanal, 94 Mb

Editör Puanı


6,0

Genislik Yukseklik


720-302

sürüm


h263 | Brrip Xvid




Gloria Bell (2018)


Film Detayları

Kocasından boşanmış, dul bir kadın olan Gloria Bell 50'li yaşlarındadır. Ancak bir anneanne olmaktan daha etkin bir hayatı hedefleyen Gloria gündüzlerini ofisinde çalışarak geçirir. Akşam olduğunda ise kendini dans pistine bırakır. Özgür ruhlu bir kadın olan Gloria’nın hayatı, dışarı çıktığı bir gece Arnold adında bir adamla tanışması ile bambaşka bir hal alır. Aşkın büyülü heyecanını yeniden hissetmeye başlayan Gloria, kendisini flört, aile, kimlik karmaşası içerinden beklenmedik bir romantizm içerisinde bulur. İlk başta her şey çok güzel gitse de zamanla hayatının ikiye bölünmüş olduğunu fark eder. Bir yandan kendi yetişkin çocukları, bir yandan Arnold’un üzerinde hala çok güçlü bir baskıları olan eski eşi ve yetişkin kızları arasında kalan Gloria, geçmişten nasıl kurtulacağını bilemediği gibi nasıl ilerleyebileceğini de çözememektir. Tek bildiği şey, kendi hayatının yönünü kendi belirlemek zorundadır...

Gloria Bell (2018) Filmi Imdb'den 7,000 kişi tarafından oylandı ve 6,3 puan aldı. Bu film için editör puanı 6,0 olarak belirlendi. İyi Seyirler!


Teknik Detaylar


Kod :
General
Complete name                            : Gloria.Bell.2018.BRRip.XviD.TR.Filmbol.avi
Format                                   : AVI
Format/Info                              : Audio Video Interleave
File size                                : 852 MiB
Duration                                 : 1h 41mn
Overall bit rate                         : 1 171 Kbps

Video
ID                                       : 0
Format                                   : MPEG-4 Visual
Format profile                           : Simple@L5
Format settings, BVOP                    : No
Format settings, QPel                    : No
Format settings, GMC                     : No warppoints
Format settings, Matrix                  : Default (H.263)
Codec ID                                 : XVID
Codec ID/Hint                            : XviD
Duration                                 : 1h 41mn
Bit rate                                 : 1 030 Kbps
Width                                    : 720 pixels
Height                                   : 302 pixels
Display aspect ratio                     : 2.40:1
Frame rate                               : 23.976 fps
Color space                              : YUV
Chroma subsampling                       : 4:2:0
Bit depth                                : 8 bits
Scan type                                : Progressive
Compression mode                         : Lossy
Bits/(Pixel*Frame)                       : 0.197
Stream size                              : 749 MiB (88%)
Writing library                          : Lavc58.35.100

Audio
ID                                       : 1
Format                                   : MPEG Audio
Format version                           : Version 1
Format profile                           : Layer 3
Mode                                     : Joint stereo
Mode extension                           : MS Stereo
Codec ID                                 : 55
Codec ID/Hint                            : MP3
Duration                                 : 1h 41mn
Bit rate mode                            : Constant
Bit rate                                 : 128 Kbps
Channel(s)                               : 2 channels
Sampling rate                            : 48.0 KHz
Compression mode                         : Lossy
Stream size                              : 93.1 MiB (11%)
Alignment                                : Aligned on interleaves
Interleave, duration                     : 24 ms (0.58 video frame)

Film Detayları


Gloria Bell (2018)

Gloria Bell (2018)

Gloria Bell (2018)


Film Fragmanı


Film Detayları

Brrip İndir



Uptobox ile indir

1Fichier ile indir

1Fichier'den İndiremiyor musun? Tıklayın!


LetsUpload ile indir

Mega ile indir

MediaFire ile indir



Konu ile Alakalı Benzer Konular
Konular Yazar Yorumlar Okunma Son Yorum
Filmin Yayınlanma Tarihi: 2020
Deathstroke Şövalyeler ve Ejderhalar (Deathstroke Knights & Dragons: The Movie) - 2020 - TR - BRRip XviD BroserBros 0 34 , Saat: 18:30
Son Yorum: BroserBros
Filmin Yayınlanma Tarihi: 2019
15 Dakika Savaş (L'intervention) - 2019 - TR - BRRip XviD BroserBros 0 34 , Saat: 17:42
Son Yorum: BroserBros
Filmin Yayınlanma Tarihi: 2020
Sürprizli Gece (The Sleepover) - 2020 - TR - BRRip XviD BroserBros 0 36 , Saat: 16:18
Son Yorum: BroserBros
Filmin Yayınlanma Tarihi: 2020
Feride (Feride) - 2020 - TR - BRRip XviD BroserBros 0 37 22-11-2020, Saat: 17:58
Son Yorum: BroserBros
Filmin Yayınlanma Tarihi: 2019
Gel Babacığına (Come to Daddy) - 2019 - TR - BRRip XviD BroserBros 0 32 22-11-2020, Saat: 17:43
Son Yorum: BroserBros

Hızlı Menü: