Filmbol Forum Film İndir 1080P v Gloria Bell (2018) Türkçe Dublaj BLURAY 1080P İndir
Filmbol'da moderatör olmak ister misiniz? Bizimle iletişime geçmek için tıklayın!
Gloria Bell (2018) Türkçe Dublaj BLURAY 1080P İndir
BroserBros
Gloria Bell (2018) Türkçe Dublaj BLURAY 1080P İndir
0
295
  • Derecelendirme: 0/5 - 0 oy
  • 1
  • 2
  • 3
  • 4
  • 5
Konuyu Okuyanlar:1 Ziyaretçi
Şuan Online!
Filmin Yayınlanma Tarihi: 2018 
Şuan Online!
BroserBros Kurucu Admin
*******
Admin

indirme türü


Bulut + Premium

Vizyon Tarihi


19 Haziran 2019

Boyutlar


1,67

diller


[TR]

altyazilar


Yok [Eklenebilir]

Video Format: Mkv


Matroska (.MKV)

Video Detay


MPEG-4, 2150Kbps, 1,53GB

imdb puanı


6,3 / 10,0 / 7,000

süre


102 dakika

Ses Kodek: AC3


Audio Coding 3 (AC3)

Ses Detay


192 Kbps, 2 Kanal, 140 Mb

Editör Puanı


6,0

Genislik Yukseklik


1920-800

sürüm


x264 | 1080P




Gloria Bell (2018)


Film Detayları

Kocasından boşanmış, dul bir kadın olan Gloria Bell 50'li yaşlarındadır. Ancak bir anneanne olmaktan daha etkin bir hayatı hedefleyen Gloria gündüzlerini ofisinde çalışarak geçirir. Akşam olduğunda ise kendini dans pistine bırakır. Özgür ruhlu bir kadın olan Gloria’nın hayatı, dışarı çıktığı bir gece Arnold adında bir adamla tanışması ile bambaşka bir hal alır. Aşkın büyülü heyecanını yeniden hissetmeye başlayan Gloria, kendisini flört, aile, kimlik karmaşası içerinden beklenmedik bir romantizm içerisinde bulur. İlk başta her şey çok güzel gitse de zamanla hayatının ikiye bölünmüş olduğunu fark eder. Bir yandan kendi yetişkin çocukları, bir yandan Arnold’un üzerinde hala çok güçlü bir baskıları olan eski eşi ve yetişkin kızları arasında kalan Gloria, geçmişten nasıl kurtulacağını bilemediği gibi nasıl ilerleyebileceğini de çözememektir. Tek bildiği şey, kendi hayatının yönünü kendi belirlemek zorundadır...

Gloria Bell (2018) Filmi Imdb'den 7,000 kişi tarafından oylandı ve 6,3 puan aldı. Bu film için editör puanı 6,0 olarak belirlendi. İyi Seyirler!


Teknik Detaylar


Kod :
Complete name                            : Gloria.Bell.2018.1080p.BLURAY.x264.TR.Filmbol.mkv
Format                                   : Matroska
Format version                           : Version 4 / Version 2
File size                                : 1.67 GiB
Duration                                 : 1h 41mn
Overall bit rate                         : 2 344 Kbps
Movie name                               : Gloria Bell (2018) - Filmbol.org
Encoded date                             : UTC 2019-12-18 03:08:14
Writing application                      : mkvmerge v35.0.0 ('All The Love In The World') 64-bit
Writing library                          : libebml v1.3.9 + libmatroska v1.5.2

Video
ID                                       : 1
Format                                   : AVC
Format/Info                              : Advanced Video Codec
Format profile                           : High@L4.1
Format settings, CABAC                   : Yes
Format settings, ReFrames                : 4 frames
Codec ID                                 : V_MPEG4/ISO/AVC
Duration                                 : 1h 41mn
Bit rate                                 : 2 150 Kbps
Width                                    : 1 920 pixels
Height                                   : 800 pixels
Display aspect ratio                     : 2.40:1
Frame rate mode                          : Constant
Frame rate                               : 23.976 (24000/1001) fps
Color space                              : YUV
Chroma subsampling                       : 4:2:0
Bit depth                                : 8 bits
Scan type                                : Progressive
Bits/(Pixel*Frame)                       : 0.058
Stream size                              : 1.53 GiB (92%)
Title                                    : 1080P - Filmbol.org
Writing library                          : x264 core 152
Default                                  : Yes
Forced                                   : No

Audio
ID                                       : 2
Format                                   : AC-3
Format/Info                              : Audio Coding 3
Mode extension                           : CM (complete main)
Format settings, Endianness              : Big
Codec ID                                 : A_AC3
Duration                                 : 1h 41mn
Bit rate mode                            : Constant
Bit rate                                 : 192 Kbps
Channel(s)                               : 2 channels
Channel positions                        : Front: L R
Sampling rate                            : 48.0 KHz
Frame rate                               : 31.250 fps (1536 spf)
Compression mode                         : Lossy
Stream size                              : 140 MiB (8%)
Title                                    : Türkçe - Filmbol.org
Language                                 : Turkish
Default                                  : Yes
Forced                                   : No

Film Detayları


Gloria Bell (2018)

Gloria Bell (2018)

Gloria Bell (2018)


Film Fragmanı


Film Detayları

Mini 1080P İndir



Uptobox ile indir

1Fichier ile indir

1Fichier'den İndiremiyor musun? Tıklayın!


LetsUpload ile indir

Mega ile indir

MediaFire ile indir



Konu ile Alakalı Benzer Konular
Konular Yazar Yorumlar Okunma Son Yorum
Filmin Yayınlanma Tarihi: 2019
Tolkien (2019) Türkçe Dublaj BLURAY m1080P İndir BroserBros 4 428 , Saat: 15:29
Son Yorum: Rocklion17
Filmin Yayınlanma Tarihi: 2020
Deathstroke Şövalyeler ve Ejderhalar (Deathstroke Knights & Dragons: The Movie) - 2020 - TR+ORG - 1080P BroserBros 0 45 23-11-2020, Saat: 18:31
Son Yorum: BroserBros
Filmin Yayınlanma Tarihi: 2019
15 Dakika Savaş (L'intervention) - 2019 - TR+ORG - 1080P BroserBros 0 47 23-11-2020, Saat: 17:42
Son Yorum: BroserBros
Filmin Yayınlanma Tarihi: 2020
Sürprizli Gece (The Sleepover) - 2020 - TR+ORG - 1080P BroserBros 0 48 23-11-2020, Saat: 16:19
Son Yorum: BroserBros
Filmin Yayınlanma Tarihi: 2020
Feride (Feride) - 2020 - TR+ORG - 1080P BroserBros 0 78 22-11-2020, Saat: 20:24
Son Yorum: BroserBros

Hızlı Menü: