Hoşgeldin, Ziyaretçi: Giriş Yap Üye Ol


stats
Adblock'u kapattıysanız tıklayın.
Hoşgeldiniz!
Filmbol'u tercih ettiğiniz için teşekkürler, ancak ablock kullanarak devam edemezsiniz.
Merak etmeyin. Heryerden ardı ardına çıkan reklamlar görmeyeceksiniz :)

Sadece site içi 1 reklam göreceksin ve bu site gezintini etkilemeyecek.
Konuyu Oyla:
  • Derecelendirme: 0/5 - 0 oy
  • 1
  • 2
  • 3
  • 4
  • 5
Gizli Takıntı (Secret Obsession) Türkçe Dublaj BLURAY m1080P İndir
#1
Filmin Yayınlanma Tarihi: 2019 

indirme türü


Bulut + Premium

vizyon tarihi


18 Haziran 2019

Boyutlar


2,27

diller


[TR]

altyazilar


KISIM [Eklenebilir]

Video Format: Mkv


Matroska (.MKV)

Video Detay


MPEG-4, 1990 Kbps, 1,36 GB

imdb puanı


4,3 / 10,0 / 5,000

süre


97 dakika

Ses Kodek: AC3


Audio Coding 3 (AC3)

Ses Detay


384 Kbps, 6 Kanal, 269 Mb

Editör Puanı


4,0

Genislik Yukseklik


1920-1080

sürüm


x264 | NF WEBDL - m1080P



Film Detayları

Bir travmaya giren Jennifer, travmadan kurtulur ancak aklında hiç bir şey kalmamış, hiç bir şey hatırlamamaktadır. Bu durumda jennifer zor durumda kalır ve tehlikededir. Çünkü kime güvenmesi gerektiğini bilemez...

Gizli Takıntı (Secret Obsession) Filmi Imdb'den 5,000 kişi tarafından oylandı ve 4,3 puan aldı. Bu film için editör puanı 4,0 olarak belirlendi. İyi Seyirler!


Teknik Detaylar




Kod:
General
Complete name                            : Secret.Obsession.2019.m1080p.NF.WEB-DL.x264.TR.Filmbol.mkv
Format                                   : Matroska
Format version                           : Version 4 / Version 2
File size                                : 1.63 GiB
Duration                                 : 1h 37mn
Overall bit rate                         : 2 376 Kbps
Movie name                               : Secret Obsession (2019) - Filmbol.org
Encoded date                             : UTC 2019-07-21 10:32:46
Writing application                      : mkvmerge v35.0.0 ('All The Love In The World') 64-bit
Writing library                          : libebml v1.3.9 + libmatroska v1.5.2

Video
ID                                       : 1
Format                                   : AVC
Format/Info                              : Advanced Video Codec
Format profile                           : Main@L4
Format settings, CABAC                   : Yes
Format settings, ReFrames                : 2 frames
Codec ID                                 : V_MPEG4/ISO/AVC
Duration                                 : 1h 37mn
Bit rate                                 : 1 990 Kbps
Width                                    : 1 920 pixels
Height                                   : 1 080 pixels
Display aspect ratio                     : 16:9
Frame rate mode                          : Constant
Frame rate                               : 23.976 (24000/1001) fps
Color space                              : YUV
Chroma subsampling                       : 4:2:0
Bit depth                                : 8 bits
Scan type                                : Progressive
Bits/(Pixel*Frame)                       : 0.040
Stream size                              : 1.36 GiB (84%)
Title                                    : m1080P - Filmbol.org
Default                                  : Yes
Forced                                   : No

Audio
ID                                       : 2
Format                                   : AC-3
Format/Info                              : Audio Coding 3
Mode extension                           : CM (complete main)
Format settings, Endianness              : Big
Codec ID                                 : A_AC3
Duration                                 : 1h 37mn
Bit rate mode                            : Constant
Bit rate                                 : 384 Kbps
Channel(s)                               : 6 channels
Channel positions                        : Front: L C R, Side: L R, LFE
Sampling rate                            : 48.0 KHz
Frame rate                               : 31.250 fps (1536 spf)
Compression mode                         : Lossy
Stream size                              : 269 MiB (16%)
Title                                    : Türkçe - Filmbol.org
Language                                 : Turkish
Default                                  : Yes
Forced                                   : No

Text
ID                                       : 3
Format                                   : UTF-8
Codec ID                                 : S_TEXT/UTF8
Codec ID/Info                            : UTF-8 Plain Text
Duration                                 : 1h 36mn
Bit rate                                 : 1 bps
Count of elements                        : 35
Stream size                              : 968 Bytes (0%)
Title                                    : KISIM
Language                                 : Turkish
Default                                  : Yes
Forced                                   : Yes

Film Detayları


gizli takinti

gizli takinti

gizli takinti

gizli takinti

gizli takinti


Film Fragmanı


Film Detayları

Mini 1080P İndir


Turbobit İle İndir

Uptobox ile indir

Tusfiles ile indir

Filerio ile indir

LetsUpload ile indir

MegaUp ile indir

Filmbol'da aşağıdaki linkler sadece üyelere sunulur. Ayrıca bu linklerde link kısaltma servisleri kullanılmaz, linke tek tık ile reklamsız erişirsiniz. Konu'ya yorum yapın ve sayfayı yenileyin. Reklamsız linkler (en az 3 en fazla 5 link) açılmış olacaktır. Not: Filmbol'a üye olmak tamamen ücretsizdir, en az 3 link kuralı 01.07.2019 tarihinden sonraki paylaşımlar için geçerlidir. Ancak çoğu film için en az bir premium link her zaman bulunur.

Mega

Dosyaco

Dosyaupload

Mediafire

Google Drive
 
Cevapla
#2
Hraika
 
Cevapla
  


Konu ile Alakalı Benzer Konular
Konular Yazar Yorumlar Okunma Son Yorum
Filmin Yayınlanma Tarihi: 2018 Dul Kadınlar (Widows) Türkçe Dublaj BLURAY m1080P İndir BroserBros 1 28 21-08-2019, Saat: 14:10
Son Yorum: Aspirin46
Filmin Yayınlanma Tarihi: 2018 Bohemian Rhapsody (2018) Türkçe Dublaj BLURAY m1080P İndir BroserBros 0 19 20-08-2019, Saat: 20:34
Son Yorum: BroserBros
Filmin Yayınlanma Tarihi: 2018 Soldado (Sicario: Day of the Saldoda) Türkçe Dublaj BLURAY m1080P İndir BroserBros 0 17 19-08-2019, Saat: 22:48
Son Yorum: BroserBros
Filmin Yayınlanma Tarihi: 2018 Yeşil Rehber (Green Book) Türkçe Dublaj BLURAY m1080P İndir BroserBros 2 75 02-08-2019, Saat: 09:31
Son Yorum: hasandalkilic
Filmin Yayınlanma Tarihi: 2019 I Am Mother (2019) Türkçe Dublaj BLURAY m1080P İndir BroserBros 0 71 09-07-2019, Saat: 23:13
Son Yorum: BroserBros

Hızlı Menü:


Şu anda bu konuyu okuyanlar: 1 Ziyaretçi