Filmbol Forum Film İndir 1080P v Gizli Bir Yaşam (A Hidden Life) - 2019 - TR+ORG - 1080P
Moderatör Alımları Başladı! Başvuru yapmak için tıklayın.
Filmbol Premium'da %50'e varan indirim fırsatı!
Gizli Bir Yaşam (A Hidden Life) - 2019 - TR+ORG - 1080P
BroserBros
Gizli Bir Yaşam (A Hidden Life) - 2019 - TR+ORG - 1080P
0
141
  • Derecelendirme: 0/5 - 0 oy
  • 1
  • 2
  • 3
  • 4
  • 5
Konuyu Okuyanlar:1 Ziyaretçi
Şuan Offine!
Filmin Yayınlanma Tarihi: 2019 
Şuan Offine!
BroserBros Kurucu Admin
*******
Admin

Vizyon Tarihi


17 Ocak 2020

imdb puanı


7,4 / 13,000

süre


174 dakika

Editör Puanı


6,5 / 10

Video Format: Mkv


Matroska (.MKV)

Ses Kodek: AC3


Audio Coding 3 (AC3)

sürüm


x264 | 1080P | BluRay

Boyutlar


3,21 GB



 Gizli Bir Yaşam



A Hidden Life, "Gizli Bir Yaşam", trajik bir gerçek hikayeyi konu ediniyor. Franz Jagerstatter'i konu alan film Franz'ın 2. dünya savaşına hitlerin nazi almanyasının yanında girmeyi reddedince işler onun için pekte yolunda gitmez ve 1943 yılında kalemi kırılarak idam edilir...

Gizli Bir Yaşam (2019) (A Hidden Life) Filmi Imdb'den 13,000 kişi tarafından oylandı ve 7,4 puan aldı. Bu film için editör puanı 6,5 olarak belirlendi. İyi Seyirler!

Teknik Detaylar

Kod :
General
Unique ID                                : 53570835972421455208614303699609796612 (0x284D5E2289D5596BBBDD4E49DC134004)
Complete name                            : /root/Desktop/Gizli.Bir.Yaşam.2019.1080p.BluRay.x264.TR.ENG.Filmbol.mkv
Format                                  : Matroska
Format version                          : Version 4 / Version 2
File size                                : 3.21 GiB
Duration                                : 2h 54mn
Overall bit rate                        : 2 635 Kbps
Movie name                              : Gizli Bir Yaşam - A Hidden of Life - 2019 | Filmbol.org
Encoded date                            : UTC 2020-05-24 15:13:46
Writing application                      : mkvmerge v8.8.0 ('Wind at my back') 64bit
Writing library                          : libebml v1.3.3 + libmatroska v1.4.4

Video
ID                                      : 1
Format                                  : AVC
Format/Info                              : Advanced Video Codec
Format profile                          : High@L4.1
Format settings, CABAC                  : Yes
Format settings, ReFrames                : 4 frames
Codec ID                                : V_MPEG4/ISO/AVC
Duration                                : 2h 54mn
Bit rate                                : 2 250 Kbps
Width                                    : 1 920 pixels
Height                                  : 800 pixels
Display aspect ratio                    : 2.40:1
Frame rate mode                          : Constant
Frame rate                              : 23.976 (24000/1001) fps
Color space                              : YUV
Chroma subsampling                      : 4:2:0
Bit depth                                : 8 bits
Scan type                                : Progressive
Bits/(Pixel*Frame)                      : 0.061
Stream size                              : 2.74 GiB (85%)
Title                                    : Filmbol.org
Writing library                          : x264 core 158
Encoding settings                        : cabac=1 / ref=4 / deblock=1:-1:-1 / analyse=0x3:0x133 / me=umh / subme=9 / psy=1 / psy_rd=1.00:0.15 / mixed_ref=1 / me_range=24 / chroma_me=1 / trellis=2 / 8x8dct=1 / cqm=0 / deadzone=21,11 / fast_pskip=0 / chroma_qp_offset=-3 / threads=18 / lookahead_threads=1 / sliced_threads=0 / nr=0 / decimate=1 / interlaced=0 / bluray_compat=0 / constrained_intra=0 / bframes=3 / b_pyramid=2 / b_adapt=2 / b_bias=0 / direct=3 / weightb=1 / open_gop=0 / weightp=2 / keyint=250 / keyint_min=23 / scenecut=40 / intra_refresh=0 / rc_lookahead=60 / rc=2pass / mbtree=1 / bitrate=2250 / ratetol=1.0 / qcomp=0.60 / qpmin=0 / qpmax=69 / qpstep=4 / cplxblur=20.0 / qblur=0.5 / vbv_maxrate=31250 / vbv_bufsize=31250 / nal_hrd=none / filler=0 / ip_ratio=1.40 / aq=1:1.00
Default                                  : Yes
Forced                                  : No

Audio #1
ID                                      : 2
Format                                  : AC-3
Format/Info                              : Audio Coding 3
Mode extension                          : CM (complete main)
Format settings, Endianness              : Big
Codec ID                                : A_AC3
Duration                                : 2h 54mn
Bit rate mode                            : Constant
Bit rate                                : 192 Kbps
Channel(s)                              : 2 channels
Channel positions                        : Front: L R
Sampling rate                            : 48.0 KHz
Frame rate                              : 31.250 fps (1536 spf)
Compression mode                        : Lossy
Stream size                              : 239 MiB (7%)
Title                                    : Filmbol.org
Language                                : Turkish
Default                                  : Yes
Forced                                  : No

Audio #2
ID                                      : 3
Format                                  : AC-3
Format/Info                              : Audio Coding 3
Mode extension                          : CM (complete main)
Format settings, Endianness              : Big
Codec ID                                : A_AC3
Duration                                : 2h 54mn
Bit rate mode                            : Constant
Bit rate                                : 192 Kbps
Channel(s)                              : 2 channels
Channel positions                        : Front: L R
Sampling rate                            : 48.0 KHz
Frame rate                              : 31.250 fps (1536 spf)
Compression mode                        : Lossy
Stream size                              : 239 MiB (7%)
Title                                    : Filmbol.org
Language                                : English
Default                                  : No
Forced                                  : No

Text
ID                                      : 4
Format                                  : UTF-8
Codec ID                                : S_TEXT/UTF8
Codec ID/Info                            : UTF-8 Plain Text
Duration                                : 2h 47mn
Bit rate                                : 19 bps
Count of elements                        : 711
Stream size                              : 24.0 KiB (0%)
Title                                    : Filmbol.org
Language                                : Turkish
Default                                  : No
Forced                                  : No

Film Detayları


 Gizli Bir Yaşam

 Gizli Bir Yaşam

 Gizli Bir Yaşam


Film Fragmanı


Film Detayları

Uptobox ile indir

1Fichier ile indir

1Fichier'den İndiremiyor musun? Tıklayın!


Bunun için üzgünüz ancak, bu linke sadece premium üyeler erişebilir.

Filmbol Cloud



Konu ile Alakalı Benzer Konular
Konular Yazar Yorumlar Okunma Son Yorum
Filmin Yayınlanma Tarihi: 2019
X-Men: Dark Phoenix (2019) Türkçe Dublaj BLURAY 1080P İndir BroserBros 38 2,726 09-10-2020, Saat: 23:51
Son Yorum: egzantirik7
Filmin Yayınlanma Tarihi: 2019
Rahat Kız (An Easy Girl) - 2019 - TR+ORG - 1080P BroserBros 0 457 08-10-2020, Saat: 19:35
Son Yorum: BroserBros
Filmin Yayınlanma Tarihi: 2020
Mavi Korku 3 (Deep Blue Sea 3) - 2020 - TR+ORG - 1080P BroserBros 0 565 03-10-2020, Saat: 21:12
Son Yorum: BroserBros
Filmin Yayınlanma Tarihi: 2018
Fast Color: Gücünü Serbest Bırak (Fast Color) - 2018 - TR+ORG - 1080P BroserBros 0 556 03-10-2020, Saat: 16:47
Son Yorum: BroserBros
Filmin Yayınlanma Tarihi: 2019
Benim Şapşik Köpeğim (Mon chien Stupide) - 2019 - TR+ORG - 1080P BroserBros 0 160 02-10-2020, Saat: 21:35
Son Yorum: BroserBros

Hızlı Menü: