Filmbol Forum Film İndir BRRip XviD v Ghost Stories (2020) Türkçe Dublaj BRRip XviD İndir
Filmbol'da moderatör olmak ister misiniz? Bizimle iletişime geçmek için tıklayın!
Ghost Stories (2020) Türkçe Dublaj BRRip XviD İndir
BroserBros
Ghost Stories (2020) Türkçe Dublaj BRRip XviD İndir
0
206
  • Derecelendirme: 0/5 - 0 oy
  • 1
  • 2
  • 3
  • 4
  • 5
Konuyu Okuyanlar:1 Ziyaretçi
Şuan Online!
Filmin Yayınlanma Tarihi: 2020 
Şuan Online!
BroserBros Kurucu Admin
*******
Admin

Vizyon Tarihi


01 Ocak 2020

imdb puanı


4,2 / 2,000

süre


144 dakika

Editör Puanı


4,5

Video Format: Avi


Audio Video Interleave (.AVI)

Ses Kodek: MP3


MPEG-1 Audio Layer III (MP3)

sürüm


h263 | BRRip Xvid

Boyutlar


0,85



Ghost Stories



Film Detayları

Karan Johar, Dibakar Banerjee, Zoya Akhtar ve Anurag Kashyap'ın yönetmenliğini üstlendiği Ghost Stories, gerilim dolu dört farklı hikayeden oluşuyor. Film, beklenmedik şekilde gelişen olayların yaşandığı korku alemine yolculuğa çıkarıyor.

Ghost Stories Filmi Imdb'den 2,000 kişi tarafından oylandı ve 4,2 puan aldı. Bu film için editör puanı 4,5 olarak belirlendi. İyi Seyirler!


Teknik Detaylar


Kod :
General
Complete name                            : /root/Desktop/3/Hayalet.Hikayeleri.2020.HDRip.XViD.TR.Filmbol.avi
Format                                   : AVI
Format/Info                              : Audio Video Interleave
File size                                : 853 MiB
Duration                                 : 2h 24mn
Overall bit rate                         : 825 Kbps

Video
ID                                       : 0
Format                                   : MPEG-4 Visual
Format profile                           : Advanced Simple@L5
Format settings, BVOP                    : 2
Format settings, QPel                    : No
Format settings, GMC                     : No warppoints
Format settings, Matrix                  : Default (MPEG)
Codec ID                                 : XVID
Codec ID/Hint                            : XviD
Duration                                 : 2h 24mn
Bit rate                                 : 684 Kbps
Width                                    : 720 pixels
Height                                   : 404 pixels
Display aspect ratio                     : 16:9
Frame rate                               : 24.000 fps
Color space                              : YUV
Chroma subsampling                       : 4:2:0
Bit depth                                : 8 bits
Scan type                                : Progressive
Compression mode                         : Lossy
Bits/(Pixel*Frame)                       : 0.098
Stream size                              : 708 MiB (83%)
Writing library                          : XviD 64

Audio
ID                                       : 1
Format                                   : MPEG Audio
Format version                           : Version 1
Format profile                           : Layer 3
Mode                                     : Joint stereo
Mode extension                           : MS Stereo
Codec ID                                 : 55
Codec ID/Hint                            : MP3
Duration                                 : 2h 24mn
Bit rate mode                            : Constant
Bit rate                                 : 128 Kbps
Channel(s)                               : 2 channels
Sampling rate                            : 48.0 KHz
Compression mode                         : Lossy
Stream size                              : 132 MiB (16%)
Alignment                                : Aligned on interleaves
Interleave, duration                     : 24 ms (0.58 video frame)

Film Detayları


Ghost Stories

Ghost Stories

Ghost Stories


Film Fragmanı


Film Detayları

Brrip İndir



Uptobox ile indir

1Fichier ile indir

1Fichier'den İndiremiyor musun? Tıklayın!


Mega ile indir

MediaFire ile indir



Konu ile Alakalı Benzer Konular
Konular Yazar Yorumlar Okunma Son Yorum
Filmin Yayınlanma Tarihi: 2019
Luce (Luce) - 2019 - TR - BRRip XviD BroserBros 0 16 9 saat önce
Son Yorum: BroserBros
Filmin Yayınlanma Tarihi: 2020
Aşka İnan (I Still Believe) - 2020 - TR - BRRip XviD BroserBros 0 15 10 saat önce
Son Yorum: BroserBros
Filmin Yayınlanma Tarihi: 2018
Döndüm Ben (Yerli) - 2018 - TR - BRRip XviD BroserBros 0 36 27-11-2020, Saat: 18:40
Son Yorum: BroserBros
Filmin Yayınlanma Tarihi: 2018
Bana Bir Soygun Yaz 2 (Yerli) - 2018 - TR - BRRip XviD BroserBros 0 27 27-11-2020, Saat: 18:26
Son Yorum: BroserBros
Filmin Yayınlanma Tarihi: 2007
Amerikan Pastası 6: Beta Evi (American Pie: Beta House) - 2007 - TR - BRRip XviD BroserBros 2 247 27-11-2020, Saat: 14:31
Son Yorum: tayyib5731

Hızlı Menü: