Filmbol Forum Film İndir 720P v Gerçeğin Peşinde (Man on a Ledge) Türkçe Dublaj BLURAY 720P İndir
Filmbol'da moderatör olmak ister misiniz? Bizimle iletişime geçmek için tıklayın!
Gerçeğin Peşinde (Man on a Ledge) Türkçe Dublaj BLURAY 720P İndir
BroserBros
Gerçeğin Peşinde (Man on a Ledge) Türkçe Dublaj BLURAY 720P İndir
1
301
  • Derecelendirme: 0/5 - 0 oy
  • 1
  • 2
  • 3
  • 4
  • 5
Konuyu Okuyanlar:1 Ziyaretçi
Şuan Online!
Filmin Yayınlanma Tarihi: 2012 
Şuan Online!
BroserBros Kurucu Admin
*******
Admin

Vizyon Tarihi


20 Nisan 2012

imdb puanı


6,6 / 140,000

süre


102 dakika

Editör Puanı


7,1

Video Format: Mkv


Matroska (.MKV)

Ses Kodek: AC3


Audio Coding 3 (AC3)

sürüm


x264 | 720P | BLURAY

Boyutlar


0,67



Gerçeğin Peşinde


Film Detayları

Görevden ihraç edilmiş eski bir polis olan Nick Cassidy (Sam Worthington), Manhattan'da bir otelin çatı katına çıkarak masumiyetini kanıtlamak için intihar girişiminde bulunur. Bir kadının çığlığı üzerine New York Polis Departmanı'ndan görevlendirilen bir ekip olay yerine gelir ve psikolog polis memuru Lydia Anderson (Elizabeth Banks), Nick'i ikna edip indirmesi için görevlendirilir. Bu arada Nick ana caddeye basınla birlikte büyük bir kalabalık toplayıp, ilgi çekmeyi de başarmıştır.

Fakat bu intihar girişimi aslında büyük bir elmas soygununu rahatça gerçekleştirmek için planlanmış bir oyundan ibarettir. Nick, haksızlığa uğrayarak görevden alındığını iddia eder; intikam planı da oldukça kurnaz ve 'sınırdadır'...

Gerçeğin Peşinde (Man on a Ledge) Filmi Imdb'den 140,000 kişi tarafından oylandı ve 6,6 puan aldı. Bu film için editör puanı 7,1 olarak belirlendi. İyi Seyirler!


Teknik Detaylar


Kod :
General
Unique ID                                : 211934690987943997815668419954619158371 (0x9F712302E344266E09B0EA2937578F63)
Complete name                            : /root/Desktop/0/Gerçeğin.Peşinde.2012.720p.BLURAY.x264.TR.Filmbol.mkv
Format                                   : Matroska
Format version                           : Version 4 / Version 2
File size                                : 674 MiB
Duration                                 : 1h 42mn
Overall bit rate                         : 920 Kbps
Encoded date                             : UTC 2019-12-24 13:11:35
Writing application                      : mkvmerge v35.0.0 ('All The Love In The World') 64-bit
Writing library                          : libebml v1.3.9 + libmatroska v1.5.2

Video
ID                                       : 1
Format                                   : AVC
Format/Info                              : Advanced Video Codec
Format profile                           : High@L4
Format settings, CABAC                   : Yes
Format settings, ReFrames                : 5 frames
Codec ID                                 : V_MPEG4/ISO/AVC
Duration                                 : 1h 42mn
Bit rate                                 : 791 Kbps
Width                                    : 1 280 pixels
Height                                   : 534 pixels
Display aspect ratio                     : 2.40:1
Frame rate mode                          : Constant
Frame rate                               : 23.976 (24000/1001) fps
Color space                              : YUV
Chroma subsampling                       : 4:2:0
Bit depth                                : 8 bits
Scan type                                : Progressive
Bits/(Pixel*Frame)                       : 0.048
Stream size                              : 579 MiB (86%)
Writing library                          : x264 core 120 r2164 da19765
Encoding settings                        : cabac=1 / ref=5 / deblock=1:-2:-1 / analyse=0x3:0x133 / me=umh / subme=9 / psy=1 / psy_rd=1.00:0.00 / mixed_ref=1 / me_range=16 / chroma_me=1 / trellis=2 / 8x8dct=1 / cqm=0 / deadzone=21,11 / fast_pskip=1 / chroma_qp_offset=-2 / threads=12 / sliced_threads=0 / nr=0 / decimate=1 / interlaced=0 / bluray_compat=0 / constrained_intra=0 / bframes=3 / b_pyramid=2 / b_adapt=2 / b_bias=0 / direct=3 / weightb=1 / open_gop=0 / weightp=2 / keyint=240 / keyint_min=23 / scenecut=40 / intra_refresh=0 / rc_lookahead=60 / rc=2pass / mbtree=1 / bitrate=791 / ratetol=1.0 / qcomp=0.60 / qpmin=10 / qpmax=51 / qpstep=4 / cplxblur=20.0 / qblur=0.5 / ip_ratio=1.40 / aq=1:1.00
Default                                  : Yes
Forced                                   : No

Audio
ID                                       : 2
Format                                   : MPEG Audio
Format version                           : Version 1
Format profile                           : Layer 3
Mode                                     : Joint stereo
Mode extension                           : MS Stereo
Codec ID                                 : A_MPEG/L3
Codec ID/Hint                            : MP3
Duration                                 : 1h 42mn
Bit rate mode                            : Constant
Bit rate                                 : 128 Kbps
Channel(s)                               : 2 channels
Sampling rate                            : 48.0 KHz
Frame rate                               : 41.667 fps (1152 spf)
Compression mode                         : Lossy
Stream size                              : 93.6 MiB (14%)
Writing library                          : LAME3.98.4
Default                                  : Yes
Forced                                   : No

Film Detayları


Gerçeğin Peşinde

Gerçeğin Peşinde

Gerçeğin Peşinde


Film Fragmanı


Film Detayları

Mini 720P İndir


Uptobox ile indir

1Fichier ile indir

1Fichier'den İndiremiyor musun? Tıklayın!


Mega ile indir

MediaFire ile indir

Şuan Offine!
Şuan Offine!
firatcan140 Süper Üye
***
Super Üye

  • Konular0
  • Mesajlar27
  • Rep puanı 0
21rwaqrwqwrq


Konu ile Alakalı Benzer Konular
Konular Yazar Yorumlar Okunma Son Yorum
Filmin Yayınlanma Tarihi: 2020
Zengo (Zengo) - 2020 - TR+ORG - 720P BroserBros 0 19 , Saat: 14:08
Son Yorum: BroserBros
Filmin Yayınlanma Tarihi: 2019
Hatıra (The Souvenir) - 2019 - TR+ORG - 720P BroserBros 0 19 , Saat: 13:04
Son Yorum: BroserBros
Filmin Yayınlanma Tarihi: 2020
My Spy (My Spy) - 2020 - TR+ORG - 720P BroserBros 0 21 , Saat: 12:54
Son Yorum: BroserBros
Filmin Yayınlanma Tarihi: 2019
Luce (Luce) - 2019 - TR+ORG - 720P BroserBros 0 28 28-11-2020, Saat: 17:58
Son Yorum: BroserBros
Filmin Yayınlanma Tarihi: 2020
Aşka İnan (I Still Believe) - 2020 - TR+ORG - 720P BroserBros 0 27 28-11-2020, Saat: 16:58
Son Yorum: BroserBros

Hızlı Menü: