Filmbol Forum Film İndir 1080P v Gerçeğin Peşinde (Man on a Ledge) Türkçe Dublaj BLURAY 1080P İndir
Filmbol'da moderatör olmak ister misiniz? Bizimle iletişime geçmek için tıklayın!
Gerçeğin Peşinde (Man on a Ledge) Türkçe Dublaj BLURAY 1080P İndir
BroserBros
Gerçeğin Peşinde (Man on a Ledge) Türkçe Dublaj BLURAY 1080P İndir
4
407
  • Derecelendirme: 0/5 - 0 oy
  • 1
  • 2
  • 3
  • 4
  • 5
Konuyu Okuyanlar:1 Ziyaretçi
Şuan Online!
Filmin Yayınlanma Tarihi: 2012 
Şuan Online!
BroserBros Kurucu Admin
*******
Admin

Vizyon Tarihi


20 Nisan 2012

imdb puanı


6,6 / 140,000

süre


102 dakika

Editör Puanı


7,1

Video Format: Mkv


Matroska (.MKV)

Ses Kodek: AC3


Audio Coding 3 (AC3)

sürüm


x264 | 1080P | BLURAY

Boyutlar


1,38



Gerçeğin Peşinde


Film Detayları

Görevden ihraç edilmiş eski bir polis olan Nick Cassidy (Sam Worthington), Manhattan'da bir otelin çatı katına çıkarak masumiyetini kanıtlamak için intihar girişiminde bulunur. Bir kadının çığlığı üzerine New York Polis Departmanı'ndan görevlendirilen bir ekip olay yerine gelir ve psikolog polis memuru Lydia Anderson (Elizabeth Banks), Nick'i ikna edip indirmesi için görevlendirilir. Bu arada Nick ana caddeye basınla birlikte büyük bir kalabalık toplayıp, ilgi çekmeyi de başarmıştır.

Fakat bu intihar girişimi aslında büyük bir elmas soygununu rahatça gerçekleştirmek için planlanmış bir oyundan ibarettir. Nick, haksızlığa uğrayarak görevden alındığını iddia eder; intikam planı da oldukça kurnaz ve 'sınırdadır'...

Gerçeğin Peşinde (Man on a Ledge) Filmi Imdb'den 140,000 kişi tarafından oylandı ve 6,6 puan aldı. Bu film için editör puanı 7,1 olarak belirlendi. İyi Seyirler!


Teknik Detaylar


Kod :
General
Unique ID                                : 248373515953274095206078318061133817266 (0xBADAFFCA0B92751EF47BD33D9F38E5B2)
Complete name                            : /root/Desktop/0/Gerçeğin.Peşinde.2012.1080p.10bit.BLURAY.x265.HEVC.Filmbol.mkv
Format                                   : Matroska
Format version                           : Version 4 / Version 2
File size                                : 1.38 GiB
Duration                                 : 1h 42mn
Overall bit rate                         : 1 930 Kbps
Movie name                               : Gerçeğin Peşinde - Filmbol.org
Encoded date                             : UTC 2019-12-24 21:13:51
Writing application                      : mkvmerge v35.0.0 ('All The Love In The World') 64-bit
Writing library                          : libebml v1.3.9 + libmatroska v1.5.2

Video
ID                                       : 1
Format                                   : HEVC
Format/Info                              : High Efficiency Video Coding
Format profile                           : Main 10@L4@Main
Codec ID                                 : V_MPEGH/ISO/HEVC
Duration                                 : 1h 42mn
Bit rate                                 : 1 801 Kbps
Width                                    : 1 920 pixels
Height                                   : 800 pixels
Display aspect ratio                     : 2.40:1
Frame rate mode                          : Constant
Frame rate                               : 23.976 (24000/1001) fps
Color space                              : YUV
Chroma subsampling                       : 4:2:0
Bit depth                                : 10 bits
Bits/(Pixel*Frame)                       : 0.049
Stream size                              : 1.29 GiB (93%)
Title                                    : 1080P - Filmbol.org
Writing library                          : x265 1.9+140-34a3d35c5f97:[Windows][GCC 5.3.0][64 bit] 10bit
Encoding settings                        : wpp / ctu=64 / min-cu-size=8 / max-tu-size=32 / tu-intra-depth=1 / tu-inter-depth=1 / me=1 / subme=2 / merange=57 / no-rect / no-amp / max-merge=2 / temporal-mvp / no-early-skip / rdpenalty=0 / no-tskip / no-tskip-fast / strong-intra-smoothing / no-lossless / no-cu-lossless / no-constrained-intra / no-fast-intra / open-gop / no-temporal-layers / interlace=0 / keyint=250 / min-keyint=23 / scenecut=40 / rc-lookahead=20 / lookahead-slices=5 / bframes=4 / bframe-bias=0 / b-adapt=2 / ref=3 / limit-refs=3 / no-limit-modes / weightp / no-weightb / aq-mode=1 / qg-size=32 / aq-strength=1.00 / cbqpoffs=0 / crqpoffs=0 / rd=3 / psy-rd=2.00 / rdoq-level=0 / psy-rdoq=0.00 / no-rd-refine / signhide / deblock=0:0 / sao / no-sao-non-deblock / b-pyramid / cutree / no-intra-refresh / rc=2 / pass / bitrate=1800 / qcomp=0.60 / qpmin=0 / qpmax=51 / qpstep=4 / cplxblur=20.0 / qblur=0.5 / ipratio=1.40 / pbratio=1.30
Default                                  : Yes
Forced                                   : No

Audio
ID                                       : 2
Format                                   : MPEG Audio
Format version                           : Version 1
Format profile                           : Layer 3
Mode                                     : Joint stereo
Mode extension                           : MS Stereo
Codec ID                                 : A_MPEG/L3
Codec ID/Hint                            : MP3
Duration                                 : 1h 42mn
Bit rate mode                            : Constant
Bit rate                                 : 128 Kbps
Channel(s)                               : 2 channels
Sampling rate                            : 48.0 KHz
Frame rate                               : 41.667 fps (1152 spf)
Compression mode                         : Lossy
Stream size                              : 93.6 MiB (7%)
Title                                    : Türkçe - Filmbol.org
Writing library                          : LAME3.98.4
Default                                  : Yes
Forced                                   : No

Film Detayları


Gerçeğin Peşinde

Gerçeğin Peşinde

Gerçeğin Peşinde


Film Fragmanı


Film Detayları

Mini 1080P İndir


Uptobox ile indir

1Fichier ile indir

1Fichier'den İndiremiyor musun? Tıklayın!


Mega ile indir

MediaFire ile indir

Şuan Offine!
Şuan Offine!
ahmetyee1 Süper Üye
***
Super Üye

  • Konular3
  • Mesajlar54
  • Rep puanı 0
10 da 10
Şuan Offine!
Şuan Offine!
caner Süper Üye
***
Super Üye

  • Konular0
  • Mesajlar52
  • Rep puanı 0
teşekkürler
Şuan Offine!
Şuan Offine!
Murat94 Süper Üye
***
Super Üye

  • Konular0
  • Mesajlar36
  • Rep puanı 0
Güzel
Şuan Offine!
Şuan Offine!
sedat695 Yeni Üye
*
Üye

  • Konular0
  • Mesajlar2
  • Rep puanı 0
güzeldir umarım paylaşım için teşekkür ederim


Konu ile Alakalı Benzer Konular
Konular Yazar Yorumlar Okunma Son Yorum
Filmin Yayınlanma Tarihi: 2020
Deathstroke Şövalyeler ve Ejderhalar (Deathstroke Knights & Dragons: The Movie) - 2020 - TR+ORG - 1080P BroserBros 0 13 10 saat önce
Son Yorum: BroserBros
Filmin Yayınlanma Tarihi: 2019
15 Dakika Savaş (L'intervention) - 2019 - TR+ORG - 1080P BroserBros 0 14 10 saat önce
Son Yorum: BroserBros
Filmin Yayınlanma Tarihi: 2020
Sürprizli Gece (The Sleepover) - 2020 - TR+ORG - 1080P BroserBros 0 15 , Saat: 16:19
Son Yorum: BroserBros
Filmin Yayınlanma Tarihi: 2020
Feride (Feride) - 2020 - TR+ORG - 1080P BroserBros 0 43 22-11-2020, Saat: 20:24
Son Yorum: BroserBros
Filmin Yayınlanma Tarihi: 2019
Gel Babacığına (Come to Daddy) - 2019 - TR+ORG - 1080P BroserBros 0 33 22-11-2020, Saat: 17:43
Son Yorum: BroserBros

Hızlı Menü: