Filmbol Forum Film İndir BRRip XviD v Gerçeğin Peşinde (Angel of Mine) Türkçe Dublaj Brrip Xvid İndir
Filmbol'da moderatör olmak ister misiniz? Bizimle iletişime geçmek için tıklayın!
Gerçeğin Peşinde (Angel of Mine) Türkçe Dublaj Brrip Xvid İndir
BroserBros
Gerçeğin Peşinde (Angel of Mine) Türkçe Dublaj Brrip Xvid İndir
0
172
  • Derecelendirme: 0/5 - 0 oy
  • 1
  • 2
  • 3
  • 4
  • 5
Konuyu Okuyanlar:1 Ziyaretçi
Şuan Online!
Filmin Yayınlanma Tarihi: 2019 
Şuan Online!
BroserBros Kurucu Admin
*******
Admin

Vizyon Tarihi


11 Ekim 2019

imdb puanı


6,5 / 6,000

süre


98 dakika

Editör Puanı


6,0

Video Format: Avi


Audio Video Interleave (.AVI)

Ses Kodek: MP3


MPEG-1 Audio Layer III (MP3)

sürüm


h263 | Brrip Xvid

Boyutlar


0,70



Gerçeğin Peşinde



Film Detayları

Gerçeğin Peşinde, kızını kaybettikten sonra bunalıma giren ve başka bir kadının çocuğunun, kendi çocuğu olduğunu düşünen bir kadının öyküsünü konu ediyor. Lizzie, kocası ile boşanma aşamasında olan bir kadındır. Genç kadın hayatını işine ve 11 yaşındaki oğlu Thomas’a adar. Ancak bir tesadüf eseri tanıştığı 7 yaşındaki Lola, genç kadının geçmişe yolculuk yapmasına neden olur. Lizzie, yıllar önce yaşadığı korkunç olayın etkisinden hala çıkamamıştır. Yıllar önce kızının doğumu sırasında çıkan yangın yüzünden çocuğunu kaybeden Lizzie, karşısında Lola’yı görünce onun kızı olduğunu düşünür. Lola’ya yakın olmak için küçük kızın annesi ile yakınlaşmaya başlayan Lizzie, bir süre sonra onların çevresinden ayrılmaz hale gelir. Lizzie’nin bu tavırlarından endişe duyan yakınları, onu engellemeye çalışsa da kimse başarılı olamaz. Saplantı haline getirdiği durum yüzünden ailesi ve oğlu ile arası açılan Lizzie, vazgeçmeden Lola’nın kızı olduğunu iddia etmeye devam eder.

Gerçeğin Peşinde (Angel of Mine) Filmi Imdb'den 6,000 kişi tarafından oylandı ve 6,5 puan aldı. Bu film için editör puanı 6,0 olarak belirlendi. İyi Seyirler!


Teknik Detaylar


Kod :
General
Complete name                            : Gerçeğin.Peşinde.2019.BRRip.XViD.TR.Filmbol.avi
Format                                   : AVI
Format/Info                              : Audio Video Interleave
File size                                : 709 MiB
Duration                                 : 1h 38mn
Overall bit rate                         : 1 005 Kbps

Video
ID                                       : 0
Format                                   : MPEG-4 Visual
Format profile                           : Advanced Simple@L5
Format settings, BVOP                    : 2
Format settings, QPel                    : No
Format settings, GMC                     : No warppoints
Format settings, Matrix                  : Default (MPEG)
Codec ID                                 : XVID
Codec ID/Hint                            : XviD
Duration                                 : 1h 38mn
Bit rate                                 : 864 Kbps
Width                                    : 720 pixels
Height                                   : 304 pixels
Display aspect ratio                     : 2.35:1
Frame rate                               : 23.976 (23976/1000) fps
Color space                              : YUV
Chroma subsampling                       : 4:2:0
Bit depth                                : 8 bits
Scan type                                : Progressive
Compression mode                         : Lossy
Bits/(Pixel*Frame)                       : 0.165
Stream size                              : 610 MiB (86%)
Writing library                          : XviD 64

Audio
ID                                       : 1
Format                                   : MPEG Audio
Format version                           : Version 1
Format profile                           : Layer 3
Mode                                     : Joint stereo
Codec ID                                 : 55
Codec ID/Hint                            : MP3
Duration                                 : 1h 38mn
Bit rate mode                            : Constant
Bit rate                                 : 128 Kbps
Channel(s)                               : 2 channels
Sampling rate                            : 48.0 KHz
Compression mode                         : Lossy
Stream size                              : 90.3 MiB (13%)
Alignment                                : Aligned on interleaves
Interleave, duration                     : 24 ms (0.58 video frame)

Film Detayları


Gerçeğin Peşinde

Gerçeğin Peşinde

Gerçeğin Peşinde


Film Fragmanı


Film Detayları

Brrip İndir


Uptobox ile indir

1Fichier ile indir

1Fichier'den İndiremiyor musun? Tıklayın!


Mega ile indir

MediaFire ile indir



Konu ile Alakalı Benzer Konular
Konular Yazar Yorumlar Okunma Son Yorum
Filmin Yayınlanma Tarihi: 2019
Hain (The Traitor / Il traditore) - 2019 - TR - BRRip XviD BroserBros 0 26 , Saat: 16:04
Son Yorum: BroserBros
Filmin Yayınlanma Tarihi: 2020
All Together Now (All Together Now) - 2020 - TR - BRRip XviD BroserBros 0 21 , Saat: 15:49
Son Yorum: BroserBros
Filmin Yayınlanma Tarihi: 2018
Vita & Virginia (Vita ve Virginia) - 2018 - TR - BRRip XviD BroserBros 0 20 , Saat: 15:31
Son Yorum: BroserBros
Filmin Yayınlanma Tarihi: 2019
Ibiza (Ibiza) - 2019 - TR - BRRip XviD BroserBros 0 23 , Saat: 14:56
Son Yorum: BroserBros
Filmin Yayınlanma Tarihi: 2018
Yaramazlar Takımı: Zaman Yolcuları (Smeshariki. Dezha vyu) - 2018 - TR - BRRip XviD BroserBros 0 32 25-11-2020, Saat: 17:59
Son Yorum: BroserBros

Hızlı Menü: