Filmbol Forum Film İndir 1080P v Gerçeğin Peşinde (Angel of Mine) Türkçe Dublaj BLURAY 1080P İndir
Filmbol'da moderatör olmak ister misiniz? Bizimle iletişime geçmek için tıklayın!
Gerçeğin Peşinde (Angel of Mine) Türkçe Dublaj BLURAY 1080P İndir
BroserBros
Gerçeğin Peşinde (Angel of Mine) Türkçe Dublaj BLURAY 1080P İndir
0
215
  • Derecelendirme: 0/5 - 0 oy
  • 1
  • 2
  • 3
  • 4
  • 5
Konuyu Okuyanlar:1 Ziyaretçi
Şuan Online!
Filmin Yayınlanma Tarihi: 2019 
Şuan Online!
BroserBros Kurucu Admin
*******
Admin

Vizyon Tarihi


11 Ekim 2019

imdb puanı


6,5 / 6,000

süre


98 dakika

Editör Puanı


6,0

Video Format: Mkv


Matroska (.MKV)

Ses Kodek: AC3


Audio Coding 3 (AC3)

sürüm


x264 | 1080P | BLURAY

Boyutlar


1,58



Gerçeğin Peşinde



Film Detayları

Gerçeğin Peşinde, kızını kaybettikten sonra bunalıma giren ve başka bir kadının çocuğunun, kendi çocuğu olduğunu düşünen bir kadının öyküsünü konu ediyor. Lizzie, kocası ile boşanma aşamasında olan bir kadındır. Genç kadın hayatını işine ve 11 yaşındaki oğlu Thomas’a adar. Ancak bir tesadüf eseri tanıştığı 7 yaşındaki Lola, genç kadının geçmişe yolculuk yapmasına neden olur. Lizzie, yıllar önce yaşadığı korkunç olayın etkisinden hala çıkamamıştır. Yıllar önce kızının doğumu sırasında çıkan yangın yüzünden çocuğunu kaybeden Lizzie, karşısında Lola’yı görünce onun kızı olduğunu düşünür. Lola’ya yakın olmak için küçük kızın annesi ile yakınlaşmaya başlayan Lizzie, bir süre sonra onların çevresinden ayrılmaz hale gelir. Lizzie’nin bu tavırlarından endişe duyan yakınları, onu engellemeye çalışsa da kimse başarılı olamaz. Saplantı haline getirdiği durum yüzünden ailesi ve oğlu ile arası açılan Lizzie, vazgeçmeden Lola’nın kızı olduğunu iddia etmeye devam eder.

Gerçeğin Peşinde (Angel of Mine) Filmi Imdb'den 6,000 kişi tarafından oylandı ve 6,5 puan aldı. Bu film için editör puanı 6,0 olarak belirlendi. İyi Seyirler!


Teknik Detaylar


Kod :
General
Complete name                            : Gerçeğin.Peşinde.2019.1080p.BLURAY.x264.TR.Filmbol.mkv.mkv
Format                                   : Matroska
Format version                           : Version 4 / Version 2
File size                                : 1.58 GiB
Duration                                 : 1h 38mn
Overall bit rate                         : 2 293 Kbps
Movie name                               : Gerçeğin Peşinde (2019) - Filmbol.org
Encoded date                             : UTC 2019-12-21 12:32:46
Writing application                      : mkvmerge v35.0.0 ('All The Love In The World') 64-bit
Writing library                          : libebml v1.3.9 + libmatroska v1.5.2

Video
ID                                       : 1
Format                                   : AVC
Format/Info                              : Advanced Video Codec
Format profile                           : High@L4.1
Format settings, CABAC                   : Yes
Format settings, ReFrames                : 4 frames
Codec ID                                 : V_MPEG4/ISO/AVC
Duration                                 : 1h 38mn
Bit rate                                 : 2 100 Kbps
Width                                    : 1 920 pixels
Height                                   : 800 pixels
Display aspect ratio                     : 2.40:1
Frame rate mode                          : Constant
Frame rate                               : 23.976 (24000/1001) fps
Color space                              : YUV
Chroma subsampling                       : 4:2:0
Bit depth                                : 8 bits
Scan type                                : Progressive
Bits/(Pixel*Frame)                       : 0.057
Stream size                              : 1.45 GiB (92%)
Title                                    : 1080P - Filmbol.org
Writing library                          : x264 core 158
Default                                  : Yes
Forced                                   : No

Audio
ID                                       : 2
Format                                   : AC-3
Format/Info                              : Audio Coding 3
Mode extension                           : CM (complete main)
Format settings, Endianness              : Big
Codec ID                                 : A_AC3
Duration                                 : 1h 38mn
Bit rate mode                            : Constant
Bit rate                                 : 192 Kbps
Channel(s)                               : 2 channels
Channel positions                        : Front: L R
Sampling rate                            : 48.0 KHz
Frame rate                               : 31.250 fps (1536 spf)
Compression mode                         : Lossy
Stream size                              : 135 MiB (8%)
Title                                    : Türkçe - Filmbol.org
Language                                 : Turkish
Default                                  : Yes
Forced                                   : No

Film Detayları


Gerçeğin Peşinde

Gerçeğin Peşinde

Gerçeğin Peşinde


Film Fragmanı


Film Detayları

Mini 1080P İndir


Uptobox ile indir

1Fichier ile indir

1Fichier'den İndiremiyor musun? Tıklayın!


Mega ile indir

MediaFire ile indir



Konu ile Alakalı Benzer Konular
Konular Yazar Yorumlar Okunma Son Yorum
Filmin Yayınlanma Tarihi: 2019
Hain (The Traitor / Il traditore) - 2019 - TR+ORG - 1080P BroserBros 0 28 , Saat: 16:05
Son Yorum: BroserBros
Filmin Yayınlanma Tarihi: 2020
All Together Now (All Together Now) - 2020 - TR+ORG - 1080P BroserBros 0 22 , Saat: 15:49
Son Yorum: BroserBros
Filmin Yayınlanma Tarihi: 2019
Ibiza (Ibiza) - 2019 - TR+ORG - 1080P BroserBros 0 25 , Saat: 14:57
Son Yorum: BroserBros
Filmin Yayınlanma Tarihi: 2018
Yaramazlar Takımı: Zaman Yolcuları (Smeshariki. Dezha vyu) - 2018 - TR+ORG - 1080P BroserBros 0 33 25-11-2020, Saat: 17:59
Son Yorum: BroserBros
Filmin Yayınlanma Tarihi: 2018
Tutarsız Adam (Spinning Man) - 2018 - TR+ORG - 1080P BroserBros 0 29 25-11-2020, Saat: 17:27
Son Yorum: BroserBros

Hızlı Menü: