Hoşgeldin, Ziyaretçi: Giriş Yap Üye Ol


Konuyu Oyla:
  • Derecelendirme: 0/5 - 0 oy
  • 1
  • 2
  • 3
  • 4
  • 5
Title: Genç Titanlar Filmi (Teen Titans Go! To the Movies) Türkçe Dublaj BRRip XviD İndir
Gösterim Stili
#1
Filmin Yayınlanma Tarihi: 2018 

vizyon tarihi


03 Ağustos 2018

imdb puanı


6,8 / 15,0000

süre


84 dakika

Editör Puanı


6,5 / 10

Video Format: Avi


Audio Video Interleave (.AVI)

Ses Kodek: MP3


MPEG-1 Audio Layer III (MP3)

sürüm


h263 | HDRip XviD

Boyutlar


1,02



Genç Titanlar Filmi



Genç Titanlar Filmi, süper kahraman ekibi Genç Titanlar’ın dünyayı ele geçirmeye çalışanlara karşı verdikleri zorlu mücadeleyi konu ediyor. Süper kahraman ekibi Teen Titans'ın üyelerine göre; bütün süper kahramanların kendilerine ait bir filmleri vardır. Fakat durum bizim ekip için böyle değildir. Fakat grubun fiili lideri Robin bu işi çözmeye ve yardımcı karakter yerine bir star olmaya kararlıdır. Ekip amacına ulaşmak adına; Hollywood’un en gözde yönetmeninin dikkatini çekmek için birkaç çılgınca fikirle beraber Tinsel Kasabası’na gelir. Ancak hayallerini gerçekleştireceklerinden emin olan grup üyeleri, dünyayı ele geçirmeye çalışan bir süper kötü tarafından yanlış yönlendirilir. İşler gitgide kötüye giderken süper kahraman ekibi, arkadaşlıklarının ve dirençlerinin sınandığı kimi olaylar sonunda, Teen Titans'ın kaderini kendi elleriyle zorlaştıracaklardır...

Genç Titanlar Filmi (2018) (Teen Titans Go! To the Movies) Filmi Imdb'den 15,0000 kişi tarafından oylandı ve 6,8 puan aldı. Bu film için editör puanı 6,5 olarak belirlendi. İyi Seyirler!

Teknik Detaylar

Kod:
General Complete name                            : /root/Desktop/5/Genç.Titanlar.Filmi.2018.HDRip.XviD.TR.Filmbol.avi Format                                   : AVI Format/Info                              : Audio Video Interleave File size                                : 1.02 GiB Duration                                 : 1h 24mn Overall bit rate                         : 1 740 Kbps  Video ID                                       : 0 Format                                   : MPEG-4 Visual Format profile                           : Simple@L5 Format settings, BVOP                    : No Format settings, QPel                    : No Format settings, GMC                     : No warppoints Format settings, Matrix                  : Default (H.263) Codec ID                                 : XVID Codec ID/Hint                            : XviD Duration                                 : 1h 24mn Bit rate                                 : 1 598 Kbps Width                                    : 720 pixels Height                                   : 400 pixels Display aspect ratio                     : 16:9 Frame rate                               : 23.976 fps Color space                              : YUV Chroma subsampling                       : 4:2:0 Bit depth                                : 8 bits Scan type                                : Progressive Compression mode                         : Lossy Bits/(Pixel*Frame)                       : 0.231 Stream size                              : 961 MiB (92%) Writing library                          : Lavc58.1.100  Audio ID                                       : 1 Format                                   : MPEG Audio Format version                           : Version 1 Format profile                           : Layer 3 Mode                                     : Joint stereo Mode extension                           : MS Stereo Codec ID                                 : 55 Codec ID/Hint                            : MP3 Duration                                 : 1h 24mn Bit rate mode                            : Constant Bit rate                                 : 128 Kbps Channel(s)                               : 2 channels Sampling rate                            : 48.0 KHz Compression mode                         : Lossy Stream size                              : 76.9 MiB (7%) Alignment                                : Aligned on interleaves Interleave, duration                     : 24 ms (0.58 video frame)

Film Detayları


Genç Titanlar Filmi

Genç Titanlar Filmi

Genç Titanlar Filmi


Film Fragmanı


Film Detayları

Brrip İndir

Uptobox ile indir

1Fichier ile indir

Mega linki şuan da gizli. Kullanıma açmak için konuya yorum yapın ve ardından sayfayı yenileyin. Ayrıca bu linki açtığınızda reklamsız olarak erişebileceğinizi unutmayın.

Mega


Mediafire linki şuan da gizli. Kullanıma açmak için konuya yorum yapın ve ardından sayfayı yenileyin. Ayrıca bu linki açtığınızda reklamsız olarak erişebileceğinizi unutmayın.

Mediafire

 
Cevapla
  


Konu ile Alakalı Benzer Konular
Konular Yazar Yorumlar Okunma Son Yorum
Filmin Yayınlanma Tarihi: 2016 Kung Fu Panda 3 Türkçe Dublaj Brrip-Xvid İndir BroserBros 2 3,053 , Saat: 01:42
Son Yorum: haytoki
Filmin Yayınlanma Tarihi: 2002 Buz Devri (Ice Age) Türkçe Dublaj BRRip XviD indir BroserBros 0 65 17-02-2020, Saat: 17:33
Son Yorum: BroserBros
Filmin Yayınlanma Tarihi: 2015 Ters Yüz (Inside Out) Türkçe Dublaj Brrip-Xvid İndir BroserBros 8 4,341 14-02-2020, Saat: 21:14
Son Yorum: nacish
Filmin Yayınlanma Tarihi: 2016 Kayıp Balık Dori (Finding Dory) Türkçe Dublaj Brrip - Xvid İndir BroserBros 5 1,748 14-02-2020, Saat: 17:21
Son Yorum: MrGunebakan
Filmin Yayınlanma Tarihi: 2019 Ralph ve İnternet (Ralph Breaks the Internet) Türkçe Dublaj Brrip Xvid İndir BroserBros 3 280 12-02-2020, Saat: 21:36
Son Yorum: gulumsegeceye

Hızlı Menü:


Browsing: 1 Ziyaretçi