Filmbol Forum Film İndir BRRip XviD v Genç Titanlar Filmi (Teen Titans Go! To the Movies) Türkçe Dublaj BRRip XviD İndir
Moderatör Alımları Başladı! Başvuru yapmak için tıklayın.
Filmbol Premium'da %50'e varan indirim fırsatı!
Genç Titanlar Filmi (Teen Titans Go! To the Movies) Türkçe Dublaj BRRip XviD İndir
BroserBros
Genç Titanlar Filmi (Teen Titans Go! To the Movies) Türkçe Dublaj BRRip XviD İndir
0
147
  • Derecelendirme: 0/5 - 0 oy
  • 1
  • 2
  • 3
  • 4
  • 5
Konuyu Okuyanlar:1 Ziyaretçi
Şuan Online!
Filmin Yayınlanma Tarihi: 2018 
Şuan Online!
BroserBros Kurucu Admin
*******
Admin

Vizyon Tarihi


03 Ağustos 2018

imdb puanı


6,8 / 15,0000

süre


84 dakika

Editör Puanı


6,5 / 10

Video Format: Avi


Audio Video Interleave (.AVI)

Ses Kodek: MP3


MPEG-1 Audio Layer III (MP3)

sürüm


h263 | HDRip XviD

Boyutlar


1,02



Genç Titanlar Filmi



Genç Titanlar Filmi, süper kahraman ekibi Genç Titanlar’ın dünyayı ele geçirmeye çalışanlara karşı verdikleri zorlu mücadeleyi konu ediyor. Süper kahraman ekibi Teen Titans'ın üyelerine göre; bütün süper kahramanların kendilerine ait bir filmleri vardır. Fakat durum bizim ekip için böyle değildir. Fakat grubun fiili lideri Robin bu işi çözmeye ve yardımcı karakter yerine bir star olmaya kararlıdır. Ekip amacına ulaşmak adına; Hollywood’un en gözde yönetmeninin dikkatini çekmek için birkaç çılgınca fikirle beraber Tinsel Kasabası’na gelir. Ancak hayallerini gerçekleştireceklerinden emin olan grup üyeleri, dünyayı ele geçirmeye çalışan bir süper kötü tarafından yanlış yönlendirilir. İşler gitgide kötüye giderken süper kahraman ekibi, arkadaşlıklarının ve dirençlerinin sınandığı kimi olaylar sonunda, Teen Titans'ın kaderini kendi elleriyle zorlaştıracaklardır...

Genç Titanlar Filmi (2018) (Teen Titans Go! To the Movies) Filmi Imdb'den 15,0000 kişi tarafından oylandı ve 6,8 puan aldı. Bu film için editör puanı 6,5 olarak belirlendi. İyi Seyirler!

Teknik Detaylar

Kod :
General Complete name                            : /root/Desktop/5/Genç.Titanlar.Filmi.2018.HDRip.XviD.TR.Filmbol.avi Format                                   : AVI Format/Info                              : Audio Video Interleave File size                                : 1.02 GiB Duration                                 : 1h 24mn Overall bit rate                         : 1 740 Kbps  Video ID                                       : 0 Format                                   : MPEG-4 Visual Format profile                           : Simple@L5 Format settings, BVOP                    : No Format settings, QPel                    : No Format settings, GMC                     : No warppoints Format settings, Matrix                  : Default (H.263) Codec ID                                 : XVID Codec ID/Hint                            : XviD Duration                                 : 1h 24mn Bit rate                                 : 1 598 Kbps Width                                    : 720 pixels Height                                   : 400 pixels Display aspect ratio                     : 16:9 Frame rate                               : 23.976 fps Color space                              : YUV Chroma subsampling                       : 4:2:0 Bit depth                                : 8 bits Scan type                                : Progressive Compression mode                         : Lossy Bits/(Pixel*Frame)                       : 0.231 Stream size                              : 961 MiB (92%) Writing library                          : Lavc58.1.100  Audio ID                                       : 1 Format                                   : MPEG Audio Format version                           : Version 1 Format profile                           : Layer 3 Mode                                     : Joint stereo Mode extension                           : MS Stereo Codec ID                                 : 55 Codec ID/Hint                            : MP3 Duration                                 : 1h 24mn Bit rate mode                            : Constant Bit rate                                 : 128 Kbps Channel(s)                               : 2 channels Sampling rate                            : 48.0 KHz Compression mode                         : Lossy Stream size                              : 76.9 MiB (7%) Alignment                                : Aligned on interleaves Interleave, duration                     : 24 ms (0.58 video frame)

Film Detayları


Genç Titanlar Filmi

Genç Titanlar Filmi

Genç Titanlar Filmi


Film Fragmanı


Film Detayları

Brrip İndir

Uptobox ile indir

1Fichier ile indir

1Fichier'den İndiremiyor musun? Tıklayın!


Mega ile indir

MediaFire ile indir



Konu ile Alakalı Benzer Konular
Konular Yazar Yorumlar Okunma Son Yorum
Filmin Yayınlanma Tarihi: 2014
Lucy (2014) Türkçe Dublaj BRRip XviD İndir BroserBros 1 262 19-09-2020, Saat: 00:56
Son Yorum: sectechno
Filmin Yayınlanma Tarihi: 2020
The Hunt (Av) - 2020 - TR - BRRip XviD BroserBros 0 312 18-09-2020, Saat: 19:28
Son Yorum: BroserBros
Filmin Yayınlanma Tarihi: 2018
Gözbebeğim (Pupille) - 2018 - TR - BRRip XviD BroserBros 0 312 18-09-2020, Saat: 13:02
Son Yorum: BroserBros
Filmin Yayınlanma Tarihi: 2019
Umut Vadisi (Hope Gap) - 2019 - TR - BRRip XviD BroserBros 0 313 18-09-2020, Saat: 12:50
Son Yorum: BroserBros
Filmin Yayınlanma Tarihi: 2019
Cep Herkülü: Naim Süleymanoğlu (Cep Herkülü: Naim Süleymanoğlu) - 2019 - TR - BRRip XviD BroserBros 0 114 15-09-2020, Saat: 21:51
Son Yorum: BroserBros

Hızlı Menü: