Filmbol Forum Film İndir BRRip XviD v Genç Titanlar Filmi (Teen Titans Go! To the Movies) Türkçe Dublaj BRRip XviD İndir
Mega linklerinin şikayet edilmemesi için global erişime kapatıp sadece yorum yapanlara açıyoruz. Bu linkleri gizleme işlemini mecburen yapıyoruz ve yorum yapmanızın siteye değil size faydası vardır. Teşekürler yazmayı çok görüp, Random/Spam mesajlar atarak Mega linklerini açmaya çalışan kullanıcılara önce süresiz ban, devam ederse IP ban atacağız.
Filmbol'da moderatör olmak ister misiniz? Bizimle iletişime geçmek için tıklayın!
Genç Titanlar Filmi (Teen Titans Go! To the Movies) Türkçe Dublaj BRRip XviD İndir
BroserBros
Genç Titanlar Filmi (Teen Titans Go! To the Movies) Türkçe Dublaj BRRip XviD İndir
0
195
  • Derecelendirme: 0/5 - 0 oy
  • 1
  • 2
  • 3
  • 4
  • 5
Konuyu Okuyanlar:1 Ziyaretçi
Şuan Online!
Filmin Yayınlanma Tarihi: 2018 
WWW
Şuan Online!
BroserBros Kurucu Admin
*******
Admin








Genç Titanlar Filmi



Genç Titanlar Filmi, süper kahraman ekibi Genç Titanlar’ın dünyayı ele geçirmeye çalışanlara karşı verdikleri zorlu mücadeleyi konu ediyor. Süper kahraman ekibi Teen Titans'ın üyelerine göre; bütün süper kahramanların kendilerine ait bir filmleri vardır. Fakat durum bizim ekip için böyle değildir. Fakat grubun fiili lideri Robin bu işi çözmeye ve yardımcı karakter yerine bir star olmaya kararlıdır. Ekip amacına ulaşmak adına; Hollywood’un en gözde yönetmeninin dikkatini çekmek için birkaç çılgınca fikirle beraber Tinsel Kasabası’na gelir. Ancak hayallerini gerçekleştireceklerinden emin olan grup üyeleri, dünyayı ele geçirmeye çalışan bir süper kötü tarafından yanlış yönlendirilir. İşler gitgide kötüye giderken süper kahraman ekibi, arkadaşlıklarının ve dirençlerinin sınandığı kimi olaylar sonunda, Teen Titans'ın kaderini kendi elleriyle zorlaştıracaklardır...

Genç Titanlar Filmi (2018) (Teen Titans Go! To the Movies) Filmi Imdb'den 15,0000 kişi tarafından oylandı ve 6,8 puan aldı. Bu film için editör puanı 6,5 olarak belirlendi. İyi Seyirler!

Teknik Detaylar

Kod :
General Complete name                            : /root/Desktop/5/Genç.Titanlar.Filmi.2018.HDRip.XviD.TR.Filmbol.avi Format                                   : AVI Format/Info                              : Audio Video Interleave File size                                : 1.02 GiB Duration                                 : 1h 24mn Overall bit rate                         : 1 740 Kbps  Video ID                                       : 0 Format                                   : MPEG-4 Visual Format profile                           : [email protected] Format settings, BVOP                    : No Format settings, QPel                    : No Format settings, GMC                     : No warppoints Format settings, Matrix                  : Default (H.263) Codec ID                                 : XVID Codec ID/Hint                            : XviD Duration                                 : 1h 24mn Bit rate                                 : 1 598 Kbps Width                                    : 720 pixels Height                                   : 400 pixels Display aspect ratio                     : 16:9 Frame rate                               : 23.976 fps Color space                              : YUV Chroma subsampling                       : 4:2:0 Bit depth                                : 8 bits Scan type                                : Progressive Compression mode                         : Lossy Bits/(Pixel*Frame)                       : 0.231 Stream size                              : 961 MiB (92%) Writing library                          : Lavc58.1.100  Audio ID                                       : 1 Format                                   : MPEG Audio Format version                           : Version 1 Format profile                           : Layer 3 Mode                                     : Joint stereo Mode extension                           : MS Stereo Codec ID                                 : 55 Codec ID/Hint                            : MP3 Duration                                 : 1h 24mn Bit rate mode                            : Constant Bit rate                                 : 128 Kbps Channel(s)                               : 2 channels Sampling rate                            : 48.0 KHz Compression mode                         : Lossy Stream size                              : 76.9 MiB (7%) Alignment                                : Aligned on interleaves Interleave, duration                     : 24 ms (0.58 video frame)

Film Detayları


Genç Titanlar Filmi

Genç Titanlar Filmi

Genç Titanlar Filmi


Film Fragmanı


Film Detayları

Brrip İndir

Uptobox ile indir

1Fichier ile indir

1Fichier'den İndiremiyor musun? Tıklayın!


Mega linki şuan da gizli. Kullanıma açmak için konuya yorum yapın ve ardından sayfayı yenileyin.

Mega


MediaFire ile indir



Konu ile Alakalı Benzer Konular
Konular Yazar Yorumlar Okunma Son Yorum
Filmin Yayınlanma Tarihi: 2016
Suicide Squad: Gerçek Kötüler Türkçe Dublaj Brrip-Xvid İndir BroserBros 5 3,532 1 saat önce
Son Yorum: algül
Filmin Yayınlanma Tarihi: 2018
Venom: Zehirli Öfke (Venom) - 2018 - TR - BRRip XviD | tt1270797 BroserBros 9 1,273 1 saat önce
Son Yorum: Furkan61
Filmin Yayınlanma Tarihi: 2016
Batman v Superman: Adaletin Şafağı (Batman v Superman: Dawn of Justice) - 2016 - TR - BRRip XviD | tt2975590 BroserBros 1 1,608 2 saat önce
Son Yorum: BroserBros
Filmin Yayınlanma Tarihi: 2020
Yarını Yokmuş Gibi (Palm Springs) - 2020 - TR - BRRip XviD | tt9484998 TheSteeL 0 27 , Saat: 01:17
Son Yorum: TheSteeL
Filmin Yayınlanma Tarihi: 2020
Polis (Police) - 2020 - TR - BRRip XviD | tt9850344 TheSteeL 0 23 , Saat: 01:04
Son Yorum: TheSteeL

Hızlı Menü: