Filmbol Forum Film İndir 1080P v Genç Titanlar Filmi (Teen Titans Go! To the Movies) Türkçe Dublaj BLURAY 1080P İndir
Mega linklerinin şikayet edilmemesi için global erişime kapatıp sadece yorum yapanlara açıyoruz. Bu linkleri gizleme işlemini mecburen yapıyoruz ve yorum yapmanızın siteye değil size faydası vardır. Teşekürler yazmayı çok görüp, Random/Spam mesajlar atarak Mega linklerini açmaya çalışan kullanıcılara önce süresiz ban, devam ederse IP ban atacağız.
Filmbol'da moderatör olmak ister misiniz? Bizimle iletişime geçmek için tıklayın!
Genç Titanlar Filmi (Teen Titans Go! To the Movies) Türkçe Dublaj BLURAY 1080P İndir
BroserBros
Genç Titanlar Filmi (Teen Titans Go! To the Movies) Türkçe Dublaj BLURAY 1080P İndir
0
239
  • Derecelendirme: 0/5 - 0 oy
  • 1
  • 2
  • 3
  • 4
  • 5
Konuyu Okuyanlar:1 Ziyaretçi
Şuan Online!
Filmin Yayınlanma Tarihi: 2018 
WWW
Şuan Online!
BroserBros Kurucu Admin
*******
Admin








Genç Titanlar Filmi



Genç Titanlar Filmi, süper kahraman ekibi Genç Titanlar’ın dünyayı ele geçirmeye çalışanlara karşı verdikleri zorlu mücadeleyi konu ediyor. Süper kahraman ekibi Teen Titans'ın üyelerine göre; bütün süper kahramanların kendilerine ait bir filmleri vardır. Fakat durum bizim ekip için böyle değildir. Fakat grubun fiili lideri Robin bu işi çözmeye ve yardımcı karakter yerine bir star olmaya kararlıdır. Ekip amacına ulaşmak adına; Hollywood’un en gözde yönetmeninin dikkatini çekmek için birkaç çılgınca fikirle beraber Tinsel Kasabası’na gelir. Ancak hayallerini gerçekleştireceklerinden emin olan grup üyeleri, dünyayı ele geçirmeye çalışan bir süper kötü tarafından yanlış yönlendirilir. İşler gitgide kötüye giderken süper kahraman ekibi, arkadaşlıklarının ve dirençlerinin sınandığı kimi olaylar sonunda, Teen Titans'ın kaderini kendi elleriyle zorlaştıracaklardır...

Genç Titanlar Filmi (2018) (Teen Titans Go! To the Movies) Filmi Imdb'den 15,0000 kişi tarafından oylandı ve 6,8 puan aldı. Bu film için editör puanı 6,5 olarak belirlendi. İyi Seyirler!

Teknik Detaylar

Kod :
General Unique ID                                : 239940694590228895475511498392454551282 (0xB482E5988A7878AEB4698CE46D5BD6F2) Complete name                            : /root/Desktop/5/Genç.Titanlar.Filmi.2018.1080p.BluRay.TR.Filmbol.mkv Format                                   : Matroska Format version                           : Version 4 / Version 2 File size                                : 1.69 GiB Duration                                 : 1h 24mn Overall bit rate                         : 2 885 Kbps Movie name                               : Genç Titanlar Filmi (2018) - Filmbol.org Encoded date                             : UTC 2020-01-09 00:04:59 Writing application                      : mkvmerge v35.0.0 ('All The Love In The World') 64-bit Writing library                          : libebml v1.3.9 + libmatroska v1.5.2  Video ID                                       : 1 Format                                   : AVC Format/Info                              : Advanced Video Codec Format profile                           : [email protected] Format settings, CABAC                   : Yes Format settings, ReFrames                : 4 frames Codec ID                                 : V_MPEG4/ISO/AVC Duration                                 : 1h 24mn Bit rate                                 : 2 500 Kbps Width                                    : 1 920 pixels Height                                   : 1 080 pixels Display aspect ratio                     : 16:9 Frame rate mode                          : Constant Frame rate                               : 23.976 (23976/1000) fps Color space                              : YUV Chroma subsampling                       : 4:2:0 Bit depth                                : 8 bits Scan type                                : Progressive Bits/(Pixel*Frame)                       : 0.050 Stream size                              : 1.47 GiB (87%) Title                                    : 1080P - Filmbol.org Writing library                          : x264 core 152 r2851M ba24899 Encoding settings                        : cabac=1 / ref=4 / deblock=1:-1:-1 / analyse=0x3:0x113 / me=umh / subme=9 / psy=1 / psy_rd=1.00:0.15 / mixed_ref=1 / me_range=24 / chroma_me=1 / trellis=2 / 8x8dct=1 / cqm=0 / deadzone=21,11 / fast_pskip=1 / chroma_qp_offset=-3 / threads=32 / lookahead_threads=4 / sliced_threads=0 / nr=0 / decimate=1 / interlaced=0 / bluray_compat=0 / constrained_intra=0 / bframes=3 / b_pyramid=2 / b_adapt=2 / b_bias=0 / direct=3 / weightb=1 / open_gop=0 / weightp=2 / keyint=250 / keyint_min=25 / scenecut=40 / intra_refresh=0 / rc_lookahead=50 / rc=2pass / mbtree=1 / bitrate=2500 / ratetol=1.0 / qcomp=0.60 / qpmin=0 / qpmax=69 / qpstep=4 / cplxblur=20.0 / qblur=0.5 / vbv_maxrate=31250 / vbv_bufsize=31250 / nal_hrd=none / filler=0 / ip_ratio=1.40 / aq=3:1.00 Default                                  : Yes Forced                                   : No  Audio ID                                       : 2 Format                                   : AC-3 Format/Info                              : Audio Coding 3 Mode extension                           : CM (complete main) Format settings, Endianness              : Big Codec ID                                 : A_AC3 Duration                                 : 1h 24mn Bit rate mode                            : Constant Bit rate                                 : 384 Kbps Channel(s)                               : 6 channels Channel positions                        : Front: L C R, Side: L R, LFE Sampling rate                            : 48.0 KHz Frame rate                               : 31.250 fps (1536 spf) Compression mode                         : Lossy Stream size                              : 231 MiB (13%) Title                                    : Türkçe - Filmbol.org Language                                 : Turkish Default                                  : Yes Forced                                   : Yes

Film Detayları


Genç Titanlar Filmi

Genç Titanlar Filmi

Genç Titanlar Filmi


Film Fragmanı


Film Detayları

Mini 1080P İndir

Uptobox ile indir

1Fichier ile indir

1Fichier'den İndiremiyor musun? Tıklayın!


Mega linki şuan da gizli. Kullanıma açmak için konuya yorum yapın ve ardından sayfayı yenileyin.

Mega


MediaFire ile indir



Konu ile Alakalı Benzer Konular
Konular Yazar Yorumlar Okunma Son Yorum
Filmin Yayınlanma Tarihi: 1974
Baba 2 (The Godfather: Part II) - 1974 - TR+ORG - 1080P | tt0071562 BroserBros 1 263 5 dakika önce
Son Yorum: BroserBros
Filmin Yayınlanma Tarihi: 2008
VOL-i (WALL-E) - 2008 - TR+ORG - 1080P | tt0910970 BroserBros 4 419 6 dakika önce
Son Yorum: BroserBros
Filmin Yayınlanma Tarihi: 1972
Baba (The Godfather) - 1972 - TR+ORG - 1080P | tt0068646 BroserBros 1 233 32 dakika önce
Son Yorum: BroserBros
Filmin Yayınlanma Tarihi: 1990
Baba 3 (The Godfather: Part III) - 1990 - TR+ORG - 1080P | tt0099674 BroserBros 1 265 1 saat önce
Son Yorum: BroserBros
Filmin Yayınlanma Tarihi: 1998
Armageddon (Armageddon) - 1998 - TR+ORG - 1080P | tt0120591 BroserBros 1 260 2 saat önce
Son Yorum: BroserBros

Hızlı Menü: