Hoşgeldin, Ziyaretçi: Giriş Yap Üye Ol


Konuyu Oyla:
  • Derecelendirme: 0/5 - 0 oy
  • 1
  • 2
  • 3
  • 4
  • 5
Geliş (Arrival) Türkçe Dublaj m1080P İndir
#1
Filmin Yayınlanma Tarihi: 2016 

indirme türü


Bulut + Premium

vizyon tarihi


11 Kasım 2016

Boyutlar


1,81GB

diller


[TR]

altyazilar


Yok [Eklenebilir]

Video Format: Mkv


Matroska (.MKV)

Video Detay


MPEG-4, 1999 Kbps, 1,59 GB

imdb puanı


8,1 / 10,0 / 270,000

süre


116 dakika

Ses Kodek: AC3


Audio Coding 3 (AC3)

Ses Detay


224 Kbps, 2 Kanal, 186 Mb

rarsifresi


filmbol.org

Editör Puanı


8,5

Genislik Yukseklik


1920x808

sürüm


x264 | m1080P




Film Detayları

Film, ordu dilbilimcisi Dr. Louise Banks'in hikayesini anlatıyor. Birden çok uzay gemisi dünyaya iniş yapınca dünya adeta sarsılır. Amaçlarının ne olduğu bilinmeyen uzaylılarla iletişim kurmanın yolları aranmaya başlar. Uzaylılarla iletişim kurması için ordu dilbilimcisi Dr. Louise Banks çağrılır. Doktora yardımcı olması için de fizikçi Ian Donnelly seçilir. İkilinin artık en önemli görevi uzaylıların barışçıl mı yoksa istilacı mı olduğunu belirleyebilmektir. Bu süreçte bir diğer zorluk da ordunun ısrarcı bir şekilde saldırı yanlısı olması olacaktır...

Başrollerine Superman'in sevgilisi Louis Lane rolünde boy gösteren Amy Adams ve Marvel'ın Hawkeye'ı Jeremy Renner'ı yerleştiren Arrival filminin yönetmen koltuğunda Sicario'nun yönetmeni Denis Villeneuve oturuyor. Filmin senaryosunu ise Elm Sokağında Kabus ve Son Durak 5'in senaryolarına imzasını atan Eric Heisserer yazıyor. Filmin kadrosunda Michael Stuhlbarg, Tzi Ma, Mark O’Brien ve Forest Whitaker da yer alıyor.

Teknik Detaylar

Kod:
General
Format                                   : Matroska
Format version                           : Version 4 / Version 2
File size                                : 1.81 GiB
Duration                                 : 1h 56mn
Overall bit rate                         : 2 225 Kbps
Movie name                               : Arrival - Filmbol.org

Video
ID                                       : 1
Format                                   : AVC
Format/Info                              : Advanced Video Codec
Format profile                           : High@L4.1
Format settings, CABAC                   : Yes
Format settings, ReFrames                : 5 frames
Codec ID                                 : V_MPEG4/ISO/AVC
Duration                                 : 1h 56mn
Bit rate                                 : 1 999 Kbps
Width                                    : 1 920 pixels
Height                                   : 808 pixels
Display aspect ratio                     : 2.40:1
Frame rate mode                          : Constant
Frame rate                               : 23.976 fps
Color space                              : YUV
Chroma subsampling                       : 4:2:0
Bit depth                                : 8 bits
Scan type                                : Progressive
Bits/(Pixel*Frame)                       : 0.054
Stream size                              : 1.59 GiB (88%)
Title                                    : m1080P - Filmbol.org
Writing library                          : x264 core 148 r2638 7599210
Default                                  : Yes
Forced                                   : No
Color primaries                          : BT.709
Matrix coefficients                      : BT.709

Audio
ID                                       : 2
Format                                   : AC-3
Format/Info                              : Audio Coding 3
Mode extension                           : CM (complete main)
Format settings, Endianness              : Big
Codec ID                                 : A_AC3
Duration                                 : 1h 56mn
Bit rate mode                            : Constant
Bit rate                                 : 224 Kbps
Channel(s)                               : 2 channels
Channel positions                        : Front: L R
Sampling rate                            : 48.0 KHz
Bit depth                                : 16 bits
Compression mode                         : Lossy
Stream size                              : 186 MiB (10%)
Title                                    : Türkçe - Filmbol.org
Language                                 : Turkish
Default                                  : Yes
Forced                                   : No



Film Detayları


Arrival

Arrival

Arrival

Arrival

Arrival


Film Fragmanı


Film Detayları

Mini 1080P İndir


Turbobit İle İndir

Mega ile indir

Uptobox ile indir

Mypcloud ile indir

 
Alinti
  


Hızlı Menü:


Şu anda bu konuyu okuyanlar: 1 Ziyaretçi