Filmbol Forum Film İndir 720P v Geleceğe Dönüş (Back to the Future) Türkçe Dublaj BLURAY m720P İndir
Mega linklerinin şikayet edilmemesi için global erişime kapatıp sadece yorum yapanlara açıyoruz. Bu linkleri gizleme işlemini mecburen yapıyoruz ve yorum yapmanızın siteye değil size faydası vardır. Teşekürler yazmayı çok görüp, Random/Spam mesajlar atarak Mega linklerini açmaya çalışan kullanıcılara önce süresiz ban, devam ederse IP ban atacağız.
Filmbol'da moderatör olmak ister misiniz? Bizimle iletişime geçmek için tıklayın!
Geleceğe Dönüş (Back to the Future) Türkçe Dublaj BLURAY m720P İndir
BroserBros
Geleceğe Dönüş (Back to the Future) Türkçe Dublaj BLURAY m720P İndir
2
520
  • Derecelendirme: 0/5 - 0 oy
  • 1
  • 2
  • 3
  • 4
  • 5
Konuyu Okuyanlar:1 Ziyaretçi
Şuan Online!
Filmin Yayınlanma Tarihi: 1985 
WWW
Şuan Online!
BroserBros Kurucu Admin
*******
Admin





Ses Kodek: AC3


Audio Coding 3 (AC3)






Gelecege Donus



Teknik Detaylar


Kod :
General
Complete name                            : Geleceğe.Dönüş.1985.m720p.BLURAY.x264.TR.Filmbol.mkv
Format                                   : Matroska
Format version                           : Version 4 / Version 2
File size                                : 1.18 GiB
Duration                                 : 1h 56mn
Overall bit rate                         : 1 449 Kbps
Movie name                               : Gelecege Donus (1985) - Filmbol.org
Encoded date                             : UTC 2019-11-16 23:17:58
Writing application                      : mkvmerge v35.0.0 ('All The Love In The World') 64-bit
Writing library                          : libebml v1.3.9 + libmatroska v1.5.2

Video
ID                                       : 1
Format                                   : AVC
Format/Info                              : Advanced Video Codec
Format profile                           : [email protected]
Format settings, CABAC                   : Yes
Format settings, ReFrames                : 4 frames
Codec ID                                 : V_MPEG4/ISO/AVC
Duration                                 : 1h 56mn
Bit rate                                 : 808 Kbps
Width                                    : 1 280 pixels
Height                                   : 696 pixels
Display aspect ratio                     : 1.85:1
Frame rate mode                          : Constant
Frame rate                               : 23.976 (24000/1001) fps
Color space                              : YUV
Chroma subsampling                       : 4:2:0
Bit depth                                : 8 bits
Scan type                                : Progressive
Bits/(Pixel*Frame)                       : 0.038
Stream size                              : 670 MiB (56%)
Title                                    : 720P - Filmbol.org
Writing library                          : x264 core 114 r1924 08d04a4
Default                                  : Yes
Forced                                   : No

Audio
ID                                       : 2
Format                                   : E-AC-3
Format/Info                              : Audio Coding 3
Format settings, Endianness              : Big
Codec ID                                 : A_EAC3
Duration                                 : 1h 56mn
Bit rate mode                            : Constant
Bit rate                                 : 640 Kbps
Channel(s)                               : 6 channels
Channel positions                        : Front: L C R, Side: L R, LFE
Sampling rate                            : 48.0 KHz
Frame rate                               : 187.500 fps (256 spf)
Compression mode                         : Lossy
Delay relative to video                  : 1s 0ms
Stream size                              : 532 MiB (44%)
Title                                    : Turkce - Filmbol.org
Language                                 : Turkish
Default                                  : Yes
Forced                                   : Yes

Film Detayları


Gelecege Donus

Gelecege Donus

Gelecege Donus


Film Fragmanı


Film Detayları

Mini 720P İndir



Uptobox ile indir

Mega linki şuan da gizli. Kullanıma açmak için konuya yorum yapın ve ardından sayfayı yenileyin.

Mega


MediaFire ile indir

Şuan Offine!
Şuan Offine!
ozlergun Yeni Üye
*
Üye

  • Konular0
  • Mesajlar2
  • Rep puanı 0
Teşekkürler
Şuan Offine!
Şuan Offine!
Arif DEĞERCAN Süper Üye
***
Super Üye

  • Konular0
  • Mesajlar33
  • Rep puanı 0
Cool Shy Big Grin


Konu ile Alakalı Benzer Konular
Konular Yazar Yorumlar Okunma Son Yorum
Filmin Yayınlanma Tarihi: 2019
Godzilla 2: Canavarlar Kralı (King of the Monsters) Türkçe Dublaj BLURAY m720P İndir BroserBros 15 1,697 02-03-2021, Saat: 18:39
Son Yorum: OsmanSKMN
Filmin Yayınlanma Tarihi: 2018
Venom: Zehirli Öfke (2018) Türkçe Dublaj Bluray m720P İndir BroserBros 16 2,417 27-02-2021, Saat: 19:14
Son Yorum: Strange
Filmin Yayınlanma Tarihi: 2019
Alev Kapanı 2 (Backdraft 2) Türkçe Dublaj BLURAY 720P indir BroserBros 1 204 27-02-2021, Saat: 13:17
Son Yorum: BroserBros
Filmin Yayınlanma Tarihi: 2019
Büyükbabalar Yuvada (Grand-Daddy Day Care) Türkçe Dublaj BLURAY 720P indir BroserBros 1 233 27-02-2021, Saat: 13:11
Son Yorum: BroserBros
Filmin Yayınlanma Tarihi: 2018
Kediler (Cats and Peachtopia) Türkçe Dublaj BLURAY 720P indir BroserBros 1 213 27-02-2021, Saat: 13:04
Son Yorum: BroserBros

Hızlı Menü: