Hoşgeldin, Ziyaretçi: Giriş Yap Üye Ol


stats
Adblock'u kapattıysanız tıklayın.
Hoşgeldiniz!
Filmbol'u tercih ettiğiniz için teşekkürler, ancak ablock kullanarak devam edemezsiniz.
Merak etmeyin. Heryerden ardı ardına çıkan reklamlar görmeyeceksiniz :)

Sadece site içi 1 reklam göreceksin ve bu site gezintini etkilemeyecek.
Konuyu Oyla:
  • Derecelendirme: 0/5 - 0 oy
  • 1
  • 2
  • 3
  • 4
  • 5
Title: Geleceğe Dönüş 3 (Back to the Future Part III) Türkçe Dublaj BLURAY m1080P İndir
Gösterim Stili
#1
Filmin Yayınlanma Tarihi: 1990 

indirme türü


Bulut + Premium

vizyon tarihi


24 Ağustos 1990

Boyutlar


1,94

diller


[TR]

altyazilar


Yok [Eklenebilir]

Video Format: Mkv


Matroska (.MKV)

Video Detay


MPEG-4, 17141Kbps, 1,41GB

imdb puanı


7,4 / 10,0 / 380,000

süre


118 dakika

Ses Kodek: AC3


Audio Coding 3 (AC3)

Ses Detay


640 Kbps, 6 Kanal, 542Mb

Editör Puanı


7,5

Genislik Yukseklik


1920-1080

sürüm


x264 | 1080P





Gelcege Donus 3


Film Detayları

Bir önceki serüvenin sonunda, 1955 yılında kısılıp kalan Marty’yi kurtarmak için Dr. Brown zamanda seyahat eder. Ancak kendisi 1885’e gelip DeLorean bozulduğu ve o zamanın teknolojisi yetmediği için burada takılan Doktor, Marty’ye bir mektup yazarak arabayı gömdüğü yeri söyler.

1955’teki Marty bu sayede arabayı bulur ve Doktoru kurtarmaya vahşi batıya gelir. Tabii burada işler umduğu gibi olmaz zira hem iyi doktor çok feci aşık olmuş hem de peşine onu öldürmek isteyen bir kanun kaçağı çetesini takmıştır.

Geleceğe Dönüş 3 (1990) (Back to the Future Part III) Filmi Imdb'den 380,000 kişi tarafından oylandı ve 7,4 puan aldı. Bu film için editör puanı 7,5 olarak belirlendi. İyi Seyirler!


Teknik Detaylar


Kod:
General
Complete name                            : Geleceğe.Dönüş.Part.III.1990.m1080p.x264.TR.Filmbol.mkv
Format                                   : Matroska
Format version                           : Version 4 / Version 2
File size                                : 1.94 GiB
Duration                                 : 1h 58mn
Overall bit rate                         : 2 350 Kbps
Movie name                               : Geleceğe Dönüş (1990) - Filmbol.org
Encoded date                             : UTC 2019-11-28 01:27:57
Writing application                      : mkvmerge v35.0.0 ('All The Love In The World') 64-bit
Writing library                          : libebml v1.3.9 + libmatroska v1.5.2

Video
ID                                       : 1
Format                                   : AVC
Format/Info                              : Advanced Video Codec
Format profile                           : High@L4
Format settings, CABAC                   : Yes
Format settings, ReFrames                : 4 frames
Codec ID                                 : V_MPEG4/ISO/AVC
Duration                                 : 1h 58mn
Bit rate                                 : 1 714 Kbps
Width                                    : 1 920 pixels
Height                                   : 1 080 pixels
Display aspect ratio                     : 16:9
Frame rate mode                          : Constant
Frame rate                               : 24.000 fps
Color space                              : YUV
Chroma subsampling                       : 4:2:0
Bit depth                                : 8 bits
Scan type                                : Progressive
Bits/(Pixel*Frame)                       : 0.034
Stream size                              : 1.41 GiB (73%)
Title                                    : 1080P - Filmbol.org
Writing library                          : x264 core 130 r2273 b3065e6
Default                                  : Yes
Forced                                   : No

Audio
ID                                       : 2
Format                                   : AC-3
Format/Info                              : Audio Coding 3
Mode extension                           : CM (complete main)
Format settings, Endianness              : Big
Codec ID                                 : A_AC3
Duration                                 : 1h 58mn
Bit rate mode                            : Constant
Bit rate                                 : 640 Kbps
Channel(s)                               : 6 channels
Channel positions                        : Front: L C R, Side: L R, LFE
Sampling rate                            : 48.0 KHz
Frame rate                               : 31.250 fps (1536 spf)
Compression mode                         : Lossy
Stream size                              : 542 MiB (27%)
Title                                    : Türkçe - Filmbol.org
Language                                 : Turkish
Default                                  : Yes
Forced                                   : Yes

Film Detayları


Geleceğe Dönüş 3

Geleceğe Dönüş 3

Geleceğe Dönüş 3


Film Fragmanı


Film Detayları

Mini 1080P İndir



Uptobox ile indir

LetsUpload ile indir

Mega linki şuan da gizli. Kullanıma açmak için konuya yorum yapın ve ardından sayfayı yenileyin. Ayrıca bu linki açtığınızda reklamsız olarak erişebileceğinizi unutmayın.

Mega


Mediafire linki şuan da gizli. Kullanıma açmak için konuya yorum yapın ve ardından sayfayı yenileyin. Ayrıca bu linki açtığınızda reklamsız olarak erişebileceğinizi unutmayın.

Mediafire

 
Cevapla
#2
thanks
 
Cevapla
  


Konu ile Alakalı Benzer Konular
Konular Yazar Yorumlar Okunma Son Yorum
Filmin Yayınlanma Tarihi: 2015 Açlık Oyunları: Alaycı Kuş Bölüm 2 (Mockingjay Part 2) Türkçe Dublaj m1080P İndir BroserBros 1 1,565 12-12-2019, Saat: 23:06
Son Yorum: LNTBRFLMCN001
Filmin Yayınlanma Tarihi: 2015 Marslı (The Martian) (2015) Türkçe Dublaj Bluray 1080P İndir BroserBros 7 5,560 10-12-2019, Saat: 19:09
Son Yorum: BroserBros
Filmin Yayınlanma Tarihi: 1985 Geleceğe Dönüş (Back to the Future) Türkçe Dublaj BLURAY m1080P İndir BroserBros 5 202 10-12-2019, Saat: 08:39
Son Yorum: iambisar
Filmin Yayınlanma Tarihi: 2019 X-Men: Dark Phoenix (2019) Türkçe Dublaj BLURAY m1080P İndir BroserBros 30 858 08-12-2019, Saat: 20:02
Son Yorum: eness1408
Filmin Yayınlanma Tarihi: 2019 Avengers: Endgame (2019) Türkçe Dublaj BLURAY m1080P İndir BroserBros 53 1,898 07-12-2019, Saat: 01:03
Son Yorum: Forsaken

Hızlı Menü:


Browsing: 1 Ziyaretçi