Filmbol Forum Film İndir BRRip XviD v Geleceğe Dönüş 2 (1989) Türkçe Dublaj Brrip Xvid İndir
Filmbol'da moderatör olmak ister misiniz? Bizimle iletişime geçmek için tıklayın!
Geleceğe Dönüş 2 (1989) Türkçe Dublaj Brrip Xvid İndir
BroserBros
Geleceğe Dönüş 2 (1989) Türkçe Dublaj Brrip Xvid İndir
2
477
  • Derecelendirme: 0/5 - 0 oy
  • 1
  • 2
  • 3
  • 4
  • 5
Konuyu Okuyanlar:1 Ziyaretçi
Şuan Online!
Filmin Yayınlanma Tarihi: 1989 
Şuan Online!
BroserBros Kurucu Admin
*******
Admin

indirme türü


Bulut + Premium

Vizyon Tarihi


26 Ocak 1998

Boyutlar


1,80

diller


[TR]

altyazilar


Yok [Eklenebilir]

Video Format: Avi


Audio Video Interleave (.AVI)

Video Detay


MPEG-4, 2249 Kbps, 1,70GB

imdb puanı


7,8 / 10,0 / 450,000

süre


108 dakika

Ses Kodek: MP3


MPEG-1 Audio Layer III (MP3)

Ses Detay


128 Kbps, 2 Kanal, 99Mb

Editör Puanı


8,2

Genislik Yukseklik


720-384

sürüm


h263 | Brrip Xvid




Gelecege Donus 2


Film Detayları

Fırlama Marty ile çılgın bilim adamı dostu Dr. Brown için, bir kez daha zaman makinesine çevirdikleri DeLorean’a başvurma zamanı. Marty bu kez 2015’e gidip henüz doğmamış çocuğuna yardım etmek zorunda kalacak. Elbette bunu yaparken ortalığı karıştıp zamanın dokusuna ve düzenine zarar verecek.

Dostumuz, yol açtığı sorunları çözmek için yeniden geçmişe, sonra da geleceğe gidip gelecek. 50’lere döndüğünde, ilk serüvendeki sahnelerin bazılarını yeniden yaşama fırsatı bulacak ama bu kez başka birinin gözünden!

Geleceğe Dönüş 2 (1989) Filmi Imdb'den 450,000 kişi tarafından oylandı ve 7,8 puan aldı. Bu film için editör puanı 8,2 olarak belirlendi. İyi Seyirler!


Teknik Detaylar


Kod :
General
Complete name                            : Geleceğe.Dönüş.II.1989.BRRip.XviD.Filmbol.avi
Format                                   : AVI
Format/Info                              : Audio Video Interleave
File size                                : 1.80 GiB
Duration                                 : 1h 48mn
Overall bit rate                         : 2 390 Kbps

Video
ID                                       : 0
Format                                   : MPEG-4 Visual
Format profile                           : Advanced Simple@L5
Format settings, BVOP                    : 2
Format settings, QPel                    : No
Format settings, GMC                     : No warppoints
Format settings, Matrix                  : Default (MPEG)
Codec ID                                 : XVID
Codec ID/Hint                            : XviD
Duration                                 : 1h 48mn
Bit rate                                 : 2 249 Kbps
Width                                    : 720 pixels
Height                                   : 384 pixels
Display aspect ratio                     : 1.85:1
Frame rate                               : 23.976 (24000/1001) fps
Color space                              : YUV
Chroma subsampling                       : 4:2:0
Bit depth                                : 8 bits
Scan type                                : Progressive
Compression mode                         : Lossy
Bits/(Pixel*Frame)                       : 0.339
Stream size                              : 1.70 GiB (94%)
Writing library                          : XviD 1.2.1 (UTC 2008-12-04)

Audio
ID                                       : 1
Format                                   : MPEG Audio
Format version                           : Version 1
Format profile                           : Layer 3
Codec ID                                 : 55
Codec ID/Hint                            : MP3
Duration                                 : 1h 48mn
Bit rate mode                            : Constant
Bit rate                                 : 128 Kbps
Channel(s)                               : 2 channels
Sampling rate                            : 48.0 KHz
Compression mode                         : Lossy
Stream size                              : 99.0 MiB (5%)
Alignment                                : Aligned on interleaves
Interleave, duration                     : 24 ms (0.58 video frame)

Film Detayları


Gelecege Donus 2

Gelecege Donus 2

Gelecege Donus 2


Film Fragmanı


Film Detayları

Brrip İndir



Uptobox ile indir

LetsUpload ile indir

Mega ile indir

MediaFire ile indir

Şuan Offine!
Şuan Offine!
sectechno Süper Üye
***
Super Üye

  • Konular9
  • Mesajlar70
  • Rep puanı 0
Teşekkürler BroserBros.Kolay gelsin.İyi çalışmalar.
Şuan Offine!
Şuan Offine!
haytoki1 Uzman Üye
**
Uzman Üye

  • Konular0
  • Mesajlar18
  • Rep puanı 0
nostalji güzel film


Konu ile Alakalı Benzer Konular
Konular Yazar Yorumlar Okunma Son Yorum
Filmin Yayınlanma Tarihi: 2020
Deathstroke Şövalyeler ve Ejderhalar (Deathstroke Knights & Dragons: The Movie) - 2020 - TR - BRRip XviD BroserBros 0 14 10 saat önce
Son Yorum: BroserBros
Filmin Yayınlanma Tarihi: 2019
15 Dakika Savaş (L'intervention) - 2019 - TR - BRRip XviD BroserBros 0 15 11 saat önce
Son Yorum: BroserBros
Filmin Yayınlanma Tarihi: 2020
Sürprizli Gece (The Sleepover) - 2020 - TR - BRRip XviD BroserBros 0 17 , Saat: 16:18
Son Yorum: BroserBros
Filmin Yayınlanma Tarihi: 2020
Feride (Feride) - 2020 - TR - BRRip XviD BroserBros 0 36 22-11-2020, Saat: 17:58
Son Yorum: BroserBros
Filmin Yayınlanma Tarihi: 2019
Gel Babacığına (Come to Daddy) - 2019 - TR - BRRip XviD BroserBros 0 31 22-11-2020, Saat: 17:43
Son Yorum: BroserBros

Hızlı Menü: