Filmbol Forum Film İndir 720P v Geleceğe Dönüş 2 (1989) Türkçe Dublaj BLURAY m720P İndir
Filmbol'da moderatör olmak ister misiniz? Bizimle iletişime geçmek için tıklayın!
Geleceğe Dönüş 2 (1989) Türkçe Dublaj BLURAY m720P İndir
BroserBros
Geleceğe Dönüş 2 (1989) Türkçe Dublaj BLURAY m720P İndir
1
369
  • Derecelendirme: 0/5 - 0 oy
  • 1
  • 2
  • 3
  • 4
  • 5
Konuyu Okuyanlar:1 Ziyaretçi
Şuan Online!
Filmin Yayınlanma Tarihi: 1989 
Şuan Online!
BroserBros Kurucu Admin
*******
Admin

indirme türü


Bulut + Premium

Vizyon Tarihi


26 Ocak 1998

Boyutlar


1,14

diller


[TR]

altyazilar


Yok [Eklenebilir]

Video Format: Mkv


Matroska (.MKV)

Video Detay


MPEG-4, 870 Kbps, 0,67GB

imdb puanı


7,8 / 10,0 / 450,000

süre


108 dakika

Ses Kodek: AC3


Audio Coding 3 (AC3)

Ses Detay


640 Kbps, 6 Kanal, 495Mb

Editör Puanı


8,2

Genislik Yukseklik


1280-696

sürüm


x264 | 720P




Gelecege Donus 2


Film Detayları

Fırlama Marty ile çılgın bilim adamı dostu Dr. Brown için, bir kez daha zaman makinesine çevirdikleri DeLorean’a başvurma zamanı. Marty bu kez 2015’e gidip henüz doğmamış çocuğuna yardım etmek zorunda kalacak. Elbette bunu yaparken ortalığı karıştıp zamanın dokusuna ve düzenine zarar verecek.

Dostumuz, yol açtığı sorunları çözmek için yeniden geçmişe, sonra da geleceğe gidip gelecek. 50’lere döndüğünde, ilk serüvendeki sahnelerin bazılarını yeniden yaşama fırsatı bulacak ama bu kez başka birinin gözünden!

Geleceğe Dönüş 2 (1989) Filmi Imdb'den 450,000 kişi tarafından oylandı ve 7,8 puan aldı. Bu film için editör puanı 8,2 olarak belirlendi. İyi Seyirler!


Teknik Detaylar


Kod :
General
Complete name                            : Geleceğe.Dönüş.II.1989.m720p.BLURAY.x264.TR.Filmbol.mkv
Format                                   : Matroska
Format version                           : Version 4 / Version 2
File size                                : 1.14 GiB
Duration                                 : 1h 48mn
Overall bit rate                         : 1 511 Kbps
Movie name                               : Geleceğe Dönüş (1989) - Filmbol.org
Encoded date                             : UTC 2019-11-16 23:48:55
Writing application                      : mkvmerge v35.0.0 ('All The Love In The World') 64-bit
Writing library                          : libebml v1.3.9 + libmatroska v1.5.2

Video
ID                                       : 1
Format                                   : AVC
Format/Info                              : Advanced Video Codec
Format profile                           : High@L3.1
Format settings, CABAC                   : Yes
Format settings, ReFrames                : 4 frames
Codec ID                                 : V_MPEG4/ISO/AVC
Duration                                 : 1h 48mn
Bit rate                                 : 870 Kbps
Width                                    : 1 280 pixels
Height                                   : 696 pixels
Display aspect ratio                     : 1.85:1
Frame rate mode                          : Constant
Frame rate                               : 23.976 (24000/1001) fps
Color space                              : YUV
Chroma subsampling                       : 4:2:0
Bit depth                                : 8 bits
Scan type                                : Progressive
Bits/(Pixel*Frame)                       : 0.041
Stream size                              : 672 MiB (58%)
Title                                    : 720P - Filmbol.org
Writing library                          : x264 core 114 r1924 08d04a4
Default                                  : Yes
Forced                                   : No

Audio
ID                                       : 2
Format                                   : E-AC-3
Format/Info                              : Audio Coding 3
Format settings, Endianness              : Big
Codec ID                                 : A_EAC3
Duration                                 : 1h 48mn
Bit rate mode                            : Constant
Bit rate                                 : 640 Kbps
Channel(s)                               : 6 channels
Channel positions                        : Front: L C R, Side: L R, LFE
Sampling rate                            : 48.0 KHz
Frame rate                               : 187.500 fps (256 spf)
Compression mode                         : Lossy
Stream size                              : 495 MiB (42%)
Title                                    : Türkçe - Filmbol.org
Language                                 : Turkish
Default                                  : Yes
Forced                                   : Yes

Film Detayları


Gelecege Donus 2

Gelecege Donus 2

Gelecege Donus 2


Film Fragmanı


Film Detayları

Mini 720P İndir



Uptobox ile indir

LetsUpload ile indir

Mega ile indir

MediaFire ile indir

Şuan Offine!
Şuan Offine!
Arif DEĞERCAN Süper Üye
***
Super Üye

  • Konular0
  • Mesajlar33
  • Rep puanı 0
Wink Wink Wink Cool


Konu ile Alakalı Benzer Konular
Konular Yazar Yorumlar Okunma Son Yorum
Filmin Yayınlanma Tarihi: 2004
Harry Potter ve Azbakan Tutsağı (Prisoner of Azkaban) Türkçe Dublaj m720P İndir BroserBros 16 1,589 17-08-2020, Saat: 22:52
Son Yorum: xzxxx
Filmin Yayınlanma Tarihi: 2019
Jarhead: Dönüş Kanunu (Jarhead: Law of Return) - 2019 - TR+ORG - 720P BroserBros 0 212 14-08-2020, Saat: 22:00
Son Yorum: BroserBros
Filmin Yayınlanma Tarihi: 2016
Lanetli Mesaj (Friend Request) Türkçe Dublaj m720P İndir BroserBros 2 1,555 29-07-2020, Saat: 14:11
Son Yorum: gurcan.d
Filmin Yayınlanma Tarihi: 2020
Dönüş Yolu (The Way Back) - 2020 - TR+ORG - 720P BroserBros 0 122 10-06-2020, Saat: 21:11
Son Yorum: BroserBros
Filmin Yayınlanma Tarihi: 2019
Shazam! 6 Güç Türkçe Dublaj Bluray m720P İndir BroserBros 3 814 18-05-2020, Saat: 19:03
Son Yorum: problemboy1

Hızlı Menü: