Filmbol Forum Film İndir BRRip XviD v Gel Babacığına (Come to Daddy) - 2019 - TR - BRRip XviD
Filmbol'da moderatör olmak ister misiniz? Bizimle iletişime geçmek için tıklayın!
Gel Babacığına (Come to Daddy) - 2019 - TR - BRRip XviD
BroserBros
Gel Babacığına (Come to Daddy) - 2019 - TR - BRRip XviD
0
33
  • Derecelendirme: 0/5 - 0 oy
  • 1
  • 2
  • 3
  • 4
  • 5
Konuyu Okuyanlar:2 Ziyaretçi
Şuan Online!
Filmin Yayınlanma Tarihi: 2019 
Şuan Online!
BroserBros Kurucu Admin
*******
Admin

Vizyon Tarihi


07 Şubat 2020

imdb puanı


6,0 / 12,500

süre


96 dakika

Editör Puanı


5,5 / 10

Video Format: Avi


Audio Video Interleave (.AVI)

Ses Kodek: MP3


MPEG-1 Audio Layer III (MP3)

sürüm


h263 | BRRip XviD

Boyutlar


0,76 GB



 Gel Babacığına



Babasıyla uzun süredir görüşmeyen Norval, onu hayallerinde ve düşlerinde kusursuz bir adam olarak tasarlar. Fakat bu düşüncesi onunla tanışmaya geldiği gün yok olur çünkü babası hayal ettiği gibi değildir...

Gel Babacığına (2019) (Come to Daddy) Filmi Imdb'den 12,500 kişi tarafından oylandı ve 6,0 puan aldı. Bu film için editör puanı 5,5 olarak belirlendi. İyi Seyirler!

Teknik Detaylar

Kod :
General
Complete name                            : /root/Desktop/4/Gel.Babacığına.2019.BRRip.XViD.TR.Filmbol.avi
Format                                  : AVI
Format/Info                              : Audio Video Interleave
File size                                : 760 MiB
Duration                                : 1h 35mn
Overall bit rate                        : 1 116 Kbps

Video
ID                                      : 0
Format                                  : MPEG-4 Visual
Format profile                          : Simple@L5
Format settings, BVOP                    : No
Format settings, QPel                    : No
Format settings, GMC                    : No warppoints
Format settings, Matrix                  : Default (H.263)
Codec ID                                : XVID
Codec ID/Hint                            : XviD
Duration                                : 1h 35mn
Bit rate                                : 976 Kbps
Width                                    : 720 pixels
Height                                  : 302 pixels
Display aspect ratio                    : 2.40:1
Frame rate                              : 23.976 fps
Color space                              : YUV
Chroma subsampling                      : 4:2:0
Bit depth                                : 8 bits
Scan type                                : Progressive
Compression mode                        : Lossy
Bits/(Pixel*Frame)                      : 0.187
Stream size                              : 664 MiB (87%)
Writing library                          : Lavc58.35.100

Audio
ID                                      : 1
Format                                  : MPEG Audio
Format version                          : Version 1
Format profile                          : Layer 3
Mode                                    : Joint stereo
Mode extension                          : MS Stereo
Codec ID                                : 55
Codec ID/Hint                            : MP3
Duration                                : 1h 35mn
Bit rate mode                            : Constant
Bit rate                                : 128 Kbps
Channel(s)                              : 2 channels
Sampling rate                            : 48.0 KHz
Compression mode                        : Lossy
Stream size                              : 87.0 MiB (11%)
Alignment                                : Aligned on interleaves
Interleave, duration                    : 24 ms (0.58 video frame)

Film Detayları


 Gel Babacığına

 Gel Babacığına

 Gel Babacığına


Film Fragmanı


Film Detayları


Uptobox ile indir

1Fichier ile indir

1Fichier'den İndiremiyor musun? Tıklayın!


Mega ile indir

Bunun için üzgünüz ancak, bu linke sadece premium üyeler erişebilir.

Filmbol Cloud



Konu ile Alakalı Benzer Konular
Konular Yazar Yorumlar Okunma Son Yorum
Filmin Yayınlanma Tarihi: 2020
Deathstroke Şövalyeler ve Ejderhalar (Deathstroke Knights & Dragons: The Movie) - 2020 - TR - BRRip XviD BroserBros 0 36 23-11-2020, Saat: 18:30
Son Yorum: BroserBros
Filmin Yayınlanma Tarihi: 2019
15 Dakika Savaş (L'intervention) - 2019 - TR - BRRip XviD BroserBros 0 35 23-11-2020, Saat: 17:42
Son Yorum: BroserBros
Filmin Yayınlanma Tarihi: 2020
Sürprizli Gece (The Sleepover) - 2020 - TR - BRRip XviD BroserBros 0 37 23-11-2020, Saat: 16:18
Son Yorum: BroserBros
Filmin Yayınlanma Tarihi: 2020
Feride (Feride) - 2020 - TR - BRRip XviD BroserBros 0 37 22-11-2020, Saat: 17:58
Son Yorum: BroserBros
Filmin Yayınlanma Tarihi: 2019
San Francisco'daki Son Siyah Adam (The Last Black Man in San Francisco) - 2019 - TR - BRRip XviD BroserBros 0 34 22-11-2020, Saat: 17:29
Son Yorum: BroserBros

Hızlı Menü: