Hoşgeldin, Ziyaretçi: Giriş Yap Üye Ol


stats
Adblock'u kapattıysanız tıklayın.
Hoşgeldiniz!
Filmbol'u tercih ettiğiniz için teşekkürler, ancak ablock kullanarak devam edemezsiniz.
Merak etmeyin. Heryerden ardı ardına çıkan reklamlar görmeyeceksiniz :)

Sadece site içi 1 reklam göreceksin ve bu site gezintini etkilemeyecek.
Konuyu Oyla:
  • Derecelendirme: 0/5 - 0 oy
  • 1
  • 2
  • 3
  • 4
  • 5
Geçmişten Gelen (The Gift) Türkçe Dublaj Brrip-Xvid İndir
#1
Filmin Yayınlanma Tarihi: 2015 

indirme türü


Bulut + Premium

vizyon tarihi


14 Ağustos 2015

Boyutlar


0,98GB

diller


[TR]

altyazilar


Yok [Eklenebilir]

Video Format: Avi


Audio Video Interleave (.AVI)

Video Detay


MPEG-4, 1159 Kbps, 0,89 GB

imdb puanı


7,1 / 10,0 / 95,000

süre


108 dakika

Ses Kodek: MP3


MPEG-1 Audio Layer III (MP3)

Ses Detay


128 Kbps, 2 Kanal, 99 Mb

rarsifresi


filmbol.org

Editör Puanı


7,0

Genislik Yukseklik


720x304

sürüm


h263 | Brrip-Xvid



Film Detayları

Simon ve Robyn yeni evli, genç bir çifttir. Hayatları tam da planladıkları gibi giderken, Simon'ın bir lise arkadaşıyla karşılaşması tüm yaşamlarını alt üst edecektir. Simon, Gordo'yu ilk başta tanımaz ama bir dizi beklenmedik karşılaşma ve kaynağı belirsiz hediye, geçmişten gelen korkunç bir sırrı da açığa çıkartacaktır. 20 sene önce Simon ve Gordo arasında gerçekleşen olayın rahatsız edici, gerçek yüzünü öğrenince Robyn hayata dair sorgulamalara da girecektir. Senaristliği ve yönetmenliği Joel Edgerton'a ait olan fimin başrollerinde Edgerton'ın yanı sıra Jason Bateman ve Rebecca Hall de yer alıyor.

Teknik Detaylar

Kod:
General
Format                                   : AVI
Format/Info                              : Audio Video Interleave
File size                                : 1 003 MiB
Duration                                 : 1h 48mn
Overall bit rate                         : 1 296 Kbps

Video
ID                                       : 0
Format                                   : MPEG-4 Visual
Format profile                           : Simple@L1
Format settings, BVOP                    : No
Format settings, QPel                    : No
Format settings, GMC                     : No warppoints
Format settings, Matrix                  : Default (H.263)
Codec ID                                 : FMP4
Duration                                 : 1h 48mn
Bit rate                                 : 1 159 Kbps
Width                                    : 720 pixels
Height                                   : 304 pixels
Display aspect ratio                     : 2.35:1
Frame rate                               : 23.976 fps
Color space                              : YUV
Chroma subsampling                       : 4:2:0
Bit depth                                : 8 bits
Scan type                                : Progressive
Compression mode                         : Lossy
Bits/(Pixel*Frame)                       : 0.221
Stream size                              : 897 MiB (89%)
Writing library                          : Lavc56.41.100

Audio
ID                                       : 1
Format                                   : MPEG Audio
Format version                           : Version 1
Format profile                           : Layer 3
Mode                                     : Joint stereo
Mode extension                           : MS Stereo
Codec ID                                 : 55
Codec ID/Hint                            : MP3
Duration                                 : 1h 48mn
Source duration                          : 1h 48mn
Bit rate mode                            : Constant
Bit rate                                 : 128 Kbps
Channel(s)                               : 2 channels
Sampling rate                            : 48.0 KHz
Compression mode                         : Lossy
Stream size                              : 98.9 MiB (10%)
Alignment                                : Aligned on interleaves
Interleave, duration                     : 42 ms (1.00 video frame)



Film Detayları


The Gift

The Gift

The Gift

The Gift

The Gift


Film Fragmanı


Film Detayları

Brrip İndir


Turbobit İle İndir

Mega ile indir

Uptobox ile indir

Cloud Ru ile indir

 
Cevapla
  


Konu ile Alakalı Benzer Konular
Konular Yazar Yorumlar Okunma Son Yorum
Filmin Yayınlanma Tarihi: 2018 Kaçış Planı 2: Hades (Escape Plan 2) Türkçe Dublaj Brrip Xvid İndir BroserBros 0 70 07-09-2019, Saat: 20:52
Son Yorum: BroserBros
Filmin Yayınlanma Tarihi: 2018 El Royale'de Zor Zamanlar (Bad Times at the El Royale) Türkçe Dublaj Brrip-Xvid İndir DRMOV 0 280 12-02-2019, Saat: 11:17
Son Yorum: DRMOV
Filmin Yayınlanma Tarihi: 2018 Öykü (The Tale) Türkçe Dublaj Brrip-Xvid İndir BroserBros 0 389 23-08-2018, Saat: 20:47
Son Yorum: BroserBros
Filmin Yayınlanma Tarihi: 2016 Yüce Sezar (Hail Ceaser) Türkçe Dublaj Brrip-Xvid İndir BroserBros 0 742 23-02-2017, Saat: 21:04
Son Yorum: BroserBros
Filmin Yayınlanma Tarihi: 2016 Manhattan Night (Manhattan Nocturne) Türkçe Dublaj Brrip-Xvid İndir BroserBros 0 783 30-01-2017, Saat: 15:23
Son Yorum: BroserBros

Hızlı Menü:


Şu anda bu konuyu okuyanlar: 1 Ziyaretçi