Filmbol Forum Film İndir FHD - FULL HD v Gece Kuşu (Late Night) - 2019 - TR+ORG - FHD - x264
Moderatör Alımları Başladı! Başvuru yapmak için tıklayın.
Filmbol Premium'da %50'e varan indirim fırsatı!
Gece Kuşu (Late Night) - 2019 - TR+ORG - FHD - x264
BroserBros
Gece Kuşu (Late Night) - 2019 - TR+ORG - FHD - x264
0
66
  • Derecelendirme: 0/5 - 0 oy
  • 1
  • 2
  • 3
  • 4
  • 5
Konuyu Okuyanlar:1 Ziyaretçi
Şuan Online!
Filmin Yayınlanma Tarihi: 2019 
Şuan Online!
BroserBros Kurucu Admin
*******
Admin

Vizyon Tarihi


16 Ağustos 2019

imdb puanı


6,5 / 23,000

süre


102 dakika

Editör Puanı


6,7 / 10

Video Format: Mkv


Matroska (.MKV)

Ses Kodek: AC3


Audio Coding 3 (AC3)

sürüm


x264|BluRay

Boyutlar


1,77 GB



 Gece Kuşu



Katherine Newbury, talk show programlarına yön veren bir kadındır ve tam da kariyerinin zirvesinde, ona bir suçlama yapılır; Newbury'nin çalışanlarının arasında herhangi bir kadın ve siyahı vatandaş olmadığından onun ırkçı olduğu savunulur. Bunun üzerine Newbury siyahi bir kadını işlerine dahil eder ve olaylar gelişir...

Gece Kuşu (2019) (Late Night) Filmi Imdb'den 23,000 kişi tarafından oylandı ve 6,5 puan aldı. Bu film için editör puanı 6,7 olarak belirlendi. İyi Seyirler!

Teknik Detaylar

Kod :
General
Unique ID                                : 325728465148916012613197476104449979693 (0xF50D053DFA5DDFC9A70694A73752752D)
Complete name                            : /root/Desktop/Gece.Kuşu.2019.FHD.BluRay.x264.TR.ENG.Filmbol.mkv
Format                                  : Matroska
Format version                          : Version 4 / Version 2
File size                                : 8.82 GiB
Duration                                : 1h 41mn
Overall bit rate                        : 12.4 Mbps
Movie name                              : Gece Kuşu - Late Night - 2019 | Filmbol.org
Encoded date                            : UTC 2020-05-28 14:36:00
Writing application                      : mkvmerge v8.8.0 ('Wind at my back') 64bit
Writing library                          : libebml v1.3.3 + libmatroska v1.4.4

Video
ID                                      : 1
Format                                  : AVC
Format/Info                              : Advanced Video Codec
Format profile                          : High@L4.1
Format settings, CABAC                  : Yes
Format settings, ReFrames                : 4 frames
Codec ID                                : V_MPEG4/ISO/AVC
Duration                                : 1h 41mn
Bit rate                                : 11.8 Mbps
Width                                    : 1 920 pixels
Height                                  : 1 040 pixels
Display aspect ratio                    : 1.85:1
Frame rate mode                          : Constant
Frame rate                              : 23.976 (23976/1000) fps
Color space                              : YUV
Chroma subsampling                      : 4:2:0
Bit depth                                : 8 bits
Scan type                                : Progressive
Bits/(Pixel*Frame)                      : 0.246
Stream size                              : 8.36 GiB (95%)
Title                                    : Filmbol.org
Writing library                          : x264 core 152 r2851 ba24899
Encoding settings                        : cabac=1 / ref=4 / deblock=1:-1:-1 / analyse=0x3:0x133 / me=tesa / subme=11 / psy=1 / psy_rd=1.00:0.00 / mixed_ref=1 / me_range=32 / chroma_me=1 / trellis=2 / 8x8dct=1 / cqm=0 / deadzone=21,11 / fast_pskip=0 / chroma_qp_offset=-2 / threads=24 / lookahead_threads=6 / sliced_threads=0 / nr=0 / decimate=0 / interlaced=0 / bluray_compat=0 / constrained_intra=0 / bframes=12 / b_pyramid=2 / b_adapt=2 / b_bias=0 / direct=3 / weightb=1 / open_gop=0 / weightp=2 / keyint=240 / keyint_min=23 / scenecut=40 / intra_refresh=0 / rc_lookahead=60 / rc=2pass / mbtree=0 / bitrate=11792 / ratetol=1.0 / qcomp=0.70 / qpmin=0 / qpmax=69 / qpstep=4 / cplxblur=20.0 / qblur=0.5 / vbv_maxrate=50000 / vbv_bufsize=62500 / nal_hrd=none / filler=0 / ip_ratio=1.40 / pb_ratio=1.30 / aq=3:0.80
Language                                : English
Default                                  : Yes
Forced                                  : No

Audio #1
ID                                      : 2
Format                                  : AC-3
Format/Info                              : Audio Coding 3
Mode extension                          : CM (complete main)
Format settings, Endianness              : Big
Codec ID                                : A_AC3
Duration                                : 1h 41mn
Bit rate mode                            : Constant
Bit rate                                : 192 Kbps
Channel(s)                              : 2 channels
Channel positions                        : Front: L R
Sampling rate                            : 48.0 KHz
Frame rate                              : 31.250 fps (1536 spf)
Compression mode                        : Lossy
Stream size                              : 140 MiB (2%)
Title                                    : Filmbol.org
Language                                : Turkish
Default                                  : Yes
Forced                                  : No

Audio #2
ID                                      : 3
Format                                  : AC-3
Format/Info                              : Audio Coding 3
Mode extension                          : CM (complete main)
Format settings, Endianness              : Big
Codec ID                                : A_AC3
Duration                                : 1h 41mn
Bit rate mode                            : Constant
Bit rate                                : 448 Kbps
Channel(s)                              : 6 channels
Channel positions                        : Front: L C R, Side: L R, LFE
Sampling rate                            : 48.0 KHz
Frame rate                              : 31.250 fps (1536 spf)
Compression mode                        : Lossy
Stream size                              : 326 MiB (4%)
Title                                    : Filmbol.org
Language                                : English
Default                                  : No
Forced                                  : No

Text
ID                                      : 4
Format                                  : UTF-8
Codec ID                                : S_TEXT/UTF8
Codec ID/Info                            : UTF-8 Plain Text
Duration                                : 1h 41mn
Bit rate                                : 82 bps
Count of elements                        : 1702
Stream size                              : 61.3 KiB (0%)
Title                                    : Filmbol.org
Language                                : Turkish
Default                                  : No
Forced                                  : No

Film Detayları


 Gece Kuşu

 Gece Kuşu

 Gece Kuşu


Film Fragmanı


Film Detayları

Uptobox ile indir

1Fichier ile indir

1Fichier'den İndiremiyor musun? Tıklayın!


Mega ile indir

Bunun için üzgünüz ancak, bu linke sadece premium üyeler erişebilir.

Filmbol Cloud



Konu ile Alakalı Benzer Konular
Konular Yazar Yorumlar Okunma Son Yorum
Filmin Yayınlanma Tarihi: 2019
Kelly Çetesi'nin Gerçek Hikayesi (True History of the Kelly Gang) - 2019 - TR+ORG - FHD - x264 BroserBros 0 74 11-07-2020, Saat: 20:24
Son Yorum: BroserBros
Filmin Yayınlanma Tarihi: 2019
İçerideki Adam: Muhbir (Inside Man: Most Wanted) - 2019 - TR+ORG - FHD - x264 BroserBros 0 75 11-07-2020, Saat: 20:11
Son Yorum: BroserBros
Filmin Yayınlanma Tarihi: 2018
Düzenbazlar Kulübü (Billionaire Boys Club) - 2018 - TR+ORG - FHD - x264 BroserBros 0 74 11-07-2020, Saat: 19:59
Son Yorum: BroserBros
Filmin Yayınlanma Tarihi: 2020
Özgürlük Listesi (The F**k-It List) - 2020 - TR+ORG - FHD - x264 BroserBros 0 110 10-07-2020, Saat: 23:09
Son Yorum: BroserBros
Filmin Yayınlanma Tarihi: 2019
Travma Merkezi (Trauma Center) - 2019 - TR+ORG - FHD - x264 BroserBros 0 48 10-07-2020, Saat: 22:54
Son Yorum: BroserBros

Hızlı Menü: