Filmbol Forum Film İndir BRRip XviD v Galaksinin Koruyucuları (Guardians of the Galaxy) Türkçe Dublaj BRRip XviD indir
Mega linklerinin şikayet edilmemesi için global erişime kapatıp sadece yorum yapanlara açıyoruz. Bu linkleri gizleme işlemini mecburen yapıyoruz ve yorum yapmanızın siteye değil size faydası vardır. Teşekürler yazmayı çok görüp, Random/Spam mesajlar atarak Mega linklerini açmaya çalışan kullanıcılara önce süresiz ban, devam ederse IP ban atacağız.
Filmbol'da moderatör olmak ister misiniz? Bizimle iletişime geçmek için tıklayın!
Galaksinin Koruyucuları (Guardians of the Galaxy) Türkçe Dublaj BRRip XviD indir
BroserBros
Galaksinin Koruyucuları (Guardians of the Galaxy) Türkçe Dublaj BRRip XviD indir
1
288
  • Derecelendirme: 0/5 - 0 oy
  • 1
  • 2
  • 3
  • 4
  • 5
Konuyu Okuyanlar:1 Ziyaretçi
Şuan Online!
Filmin Yayınlanma Tarihi: 2014 
WWW
Şuan Online!
BroserBros Kurucu Admin
*******
Admin








 Galaksinin Koruyucuları



Galaksinin Koruyucuları, evrenin kontrolünü ele geçirmeye çalışanları durdurmaya çalışan bir grup suçlunun hikayesini konu ediyor. Kendisine Star-Lord lakabını takan maceracı Peter Quill, esrarengiz bir küreyi çalınca güçlü, hırslı ve ihtiraslı bir kötü adam olan Ronan'la başı derde girer. Ronan'ın tek amacı küreyi ele geçirmektir ve bu hayali tüm evreni tehdit altına alabilir. Quill, ondan kurtulmak isterken bir anda kendisini birbiriyle hiçbir ilgisi olmayan uyumsuz bir ekibin içerisinde bulur; tehlikeyi yok etmek isteyen Star-Lord, silahlı bir rakun olan Roket, Rakun’un yoldaşı olan ağaç kılıklı Groot, ölümcül yeşil kadın Gamora ve gözünü intikam hırsı bürümüş Yokedici Drax ile işbirliği içerisine girer. Galaksinin Koruyucuları olarak anılan bu beşli, evren için gerçekten tehlike arz eden bu kürenin gücüne ve peşindeki düşmanlarına karşı ne yapacaktır? Marvel'ın "Guardians Of The Galaxy" adlı çizgi romanından uyarlanan filmin yönetmenliğini Slither ve Super filmlerinin yönetmeni James Gunn üstlenirken başrol ve seslendirme kadrosunda Chris Pratt, Vin Diesel, Bradley Cooper ve Zoe Saldana gibi isimler bulunuyor.

Galaksinin Koruyucuları (2014) (Guardians of the Galaxy) Filmi Imdb'den 1,000,000 kişi tarafından oylandı ve 8,0 puan aldı. Bu film için editör puanı 9,2 olarak belirlendi. İyi Seyirler!

Teknik Detaylar

Kod :
General
Complete name                            : /root/Desktop/5/Galaksinin.Koruyuculari.2014.BDRip.XviD.TR.Filmbol.avi
Format                                   : AVI
Format/Info                              : Audio Video Interleave
File size                                : 1.37 GiB
Duration                                 : 2h 0mn
Overall bit rate                         : 1 623 Kbps

Video
ID                                       : 0
Format                                   : MPEG-4 Visual
Format profile                           : Advanced [email protected]
Format settings, BVOP                    : 2
Format settings, QPel                    : No
Format settings, GMC                     : No warppoints
Format settings, Matrix                  : Default (H.263)
Codec ID                                 : XVID
Codec ID/Hint                            : XviD
Duration                                 : 2h 0mn
Bit rate                                 : 1 482 Kbps
Width                                    : 640 pixels
Height                                   : 272 pixels
Display aspect ratio                     : 2.35:1
Frame rate                               : 23.976 (24000/1001) fps
Color space                              : YUV
Chroma subsampling                       : 4:2:0
Bit depth                                : 8 bits
Scan type                                : Progressive
Compression mode                         : Lossy
Bits/(Pixel*Frame)                       : 0.355
Stream size                              : 1.25 GiB (91%)
Writing library                          : XviD 1.2.1 (UTC 2008-12-04)

Audio
ID                                       : 1
Format                                   : MPEG Audio
Format version                           : Version 1
Format profile                           : Layer 3
Mode                                     : Joint stereo
Mode extension                           : MS Stereo
Codec ID                                 : 55
Codec ID/Hint                            : MP3
Duration                                 : 2h 0mn
Bit rate mode                            : Constant
Bit rate                                 : 128 Kbps
Channel(s)                               : 2 channels
Sampling rate                            : 48.0 KHz
Compression mode                         : Lossy
Stream size                              : 111 MiB (8%)
Alignment                                : Aligned on interleaves
Interleave, duration                     : 24 ms (0.58 video frame)
Writing library                          : LAME3.99r
Encoding settings                        : -m j -V 4 -q 2 -lowpass 17 -b 128

Film Detayları


 Galaksinin Koruyucuları

 Galaksinin Koruyucuları

 Galaksinin Koruyucuları


Film Fragmanı


Film Detayları

Brrip İndir

Uptobox ile indir

1Fichier ile indir

1Fichier'den İndiremiyor musun? Tıklayın!


Mega linki şuan da gizli. Kullanıma açmak için konuya yorum yapın ve ardından sayfayı yenileyin.

Mega


MediaFire ile indir

Şuan Offine!
Şuan Offine!
sectechno Premium Üye
****

  • Konular10
  • Mesajlar96
  • Rep puanı 20
Teşekkürler BroserBros.İyi çalışmalar.


Konu ile Alakalı Benzer Konular
Konular Yazar Yorumlar Okunma Son Yorum
  Her Zaman Şeytan (The Devil All the Time) - 2020 - TR - BRRip XviD | tt7395114 TheSteeL 0 24 11 saat önce
Son Yorum: TheSteeL
Filmin Yayınlanma Tarihi: 2020
Baba Aranıyor (Se busca papá) - 2020 - TR - BRRip XviD | tt12721188 TheSteeL 0 21 , Saat: 21:12
Son Yorum: TheSteeL
Filmin Yayınlanma Tarihi: 1999
Yeşil Yol (The Green Mile) - 1999 - TR - BRRip XviD | tt0120689 BroserBros 2 246 , Saat: 15:54
Son Yorum: Furkan61
Filmin Yayınlanma Tarihi: 2019
Beyaz Kentin Sessizliği (El silencio de la ciudad blanca) - 2019 - TR - BRRip XviD | tt8393332 BroserBros 1 245 , Saat: 15:38
Son Yorum: BroserBros
Filmin Yayınlanma Tarihi: 2014
Frankenstein: Ölümsüzlerin Savaşı (I, Frankenstein) - 2014 - TR - BRRip XviD | tt1418377 BroserBros 2 296 , Saat: 15:29
Son Yorum: BroserBros

Hızlı Menü: